<?xml version="1.0" standalone="no"?>
<!DOCTYPE svg PUBLIC "-//W3C//DTD SVG 1.1//EN" "http://www.w3.org/Graphics/SVG/1.1/DTD/svg11.dtd" >
<svg xmlns="http://www.w3.org/2000/svg">
<metadata></metadata>
<defs>
<font id="bariol_boldbold" horiz-adv-x="1437" >
<font-face units-per-em="2048" ascent="1612" descent="-436" />
<missing-glyph horiz-adv-x="462" />
<glyph unicode="&#x2e;&#x2e;&#x2e;" horiz-adv-x="1482" d="M96 117q0 137 135 137q134 0 134 -137q0 -133 -134 -133q-135 0 -135 133zM606 117q0 137 135 137q133 0 133 -137q0 -133 -133 -133q-135 0 -135 133zM1118 117q0 137 135 137q133 0 133 -137q0 -133 -133 -133q-135 0 -135 133z" />
<glyph unicode="&#xfb01;" horiz-adv-x="1075" d="M33 838q0 38 27 65t65 27h43v96q0 72 27 139t76.5 120.5t128.5 85.5t175 32q68 0 133 -13.5t99 -33.5q55 -32 55 -92q0 -43 -30.5 -74t-73.5 -31q-18 0 -53 12q-79 27 -130 27q-84 0 -135 -44t-51 -112v-112h473q46 0 78.5 -32.5t32.5 -78.5v-725q0 -46 -32.5 -78 t-78.5 -32t-78 32t-32 78v651h-363v-655q0 -45 -32 -75.5t-78 -30.5q-49 0 -80 30t-31 76v655h-43q-38 0 -65 27.5t-27 65.5z" />
<glyph unicode="&#xfb02;" horiz-adv-x="1136" d="M33 838q0 38 27 65t65 27h43v96q0 72 27 139t76.5 120.5t128.5 85.5t175 32q211 0 343 -82q55 -34 55 -96v-1000q0 -17 13 -27t26 -10q43 0 72.5 -29.5t29.5 -72.5t-29.5 -72.5t-72.5 -29.5q-122 0 -191 67.5t-69 194.5v499h-363v-655q0 -45 -32 -75.5t-78 -30.5 q-49 0 -80 30t-31 76v655h-43q-38 0 -65 27.5t-27 65.5zM389 930h363v237q-87 31 -177 31q-84 0 -135 -44t-51 -112v-112z" />
<glyph unicode="&#xfb03;" horiz-adv-x="1703" d="M33 838q0 38 27 65t65 27h43v110q0 98 41.5 178.5t132 132.5t217.5 52q40 0 68 -28t28 -68t-28 -68.5t-68 -28.5q-82 0 -126 -41.5t-44 -111.5v-127h408v96q0 72 27 139t76.5 120.5t128.5 85.5t175 32q68 0 133 -13.5t99 -33.5q55 -32 55 -92q0 -43 -31 -74t-74 -31 q-18 0 -53 12q-79 27 -129 27q-84 0 -135 -44t-51 -112v-112h473q46 0 78.5 -32.5t32.5 -78.5v-725q0 -46 -32.5 -78t-78.5 -32t-78.5 32t-32.5 78v651h-362v-655q0 -45 -32.5 -75.5t-78.5 -30.5q-49 0 -79.5 30t-30.5 76v655h-408v-655q0 -45 -32 -75.5t-78 -30.5 q-49 0 -80 30t-31 76v655h-43q-38 0 -65 27.5t-27 65.5z" />
<glyph unicode="&#xfb04;" horiz-adv-x="1763" d="M33 838q0 38 27 65t65 27h43v110q0 98 41.5 178.5t132 132.5t217.5 52q40 0 68 -28t28 -68t-28 -68.5t-68 -28.5q-82 0 -126 -41.5t-44 -111.5v-127h406v96q0 72 27 139t76.5 120.5t128.5 85.5t175 32q210 0 342 -82q55 -34 55 -96v-1000q0 -17 13 -27t26 -10 q43 0 73 -29.5t30 -72.5t-30 -72.5t-73 -29.5q-122 0 -191 67.5t-69 194.5v499h-362v-655q0 -45 -32.5 -75.5t-78.5 -30.5q-49 0 -79.5 30t-30.5 76v655h-406v-655q0 -45 -32 -75.5t-78 -30.5q-49 0 -80 30t-31 76v655h-43q-38 0 -65 27.5t-27 65.5zM1016 930h362v237 q-87 31 -176 31q-84 0 -135 -44t-51 -112v-112z" />
<glyph horiz-adv-x="2048" />
<glyph horiz-adv-x="2048" />
<glyph unicode="&#xd;" horiz-adv-x="2048" />
<glyph unicode=" "  horiz-adv-x="462" />
<glyph unicode="&#x09;" horiz-adv-x="462" />
<glyph unicode="&#xa0;" horiz-adv-x="462" />
<glyph unicode="!" horiz-adv-x="434" d="M84 117q0 137 135 137q133 0 133 -137q0 -133 -133 -133q-135 0 -135 133zM92 1280q-3 58 30.5 86.5t96.5 28.5q62 0 95 -28.5t30 -86.5l-39 -815q-2 -35 -23.5 -56.5t-62.5 -21.5q-44 0 -66 21t-24 57z" />
<glyph unicode="&#x22;" horiz-adv-x="598" d="M74 1311q-2 40 23 62t75 22t74 -21.5t22 -62.5l-18 -328q-3 -74 -78 -74q-77 0 -80 74zM330 1311q-2 40 23 62t75 22t74 -21.5t22 -62.5l-18 -328q-3 -74 -78 -74q-77 0 -80 74z" />
<glyph unicode="#" horiz-adv-x="1169" d="M94 481q0 38 27 65t65 27h95l30 195h-75q-38 0 -65.5 27t-27.5 65t27.5 65t65.5 27h104l49 303q6 35 33.5 57.5t64.5 22.5q41 0 70 -27t29 -67q0 -8 -2 -24l-43 -265h164l49 303q6 35 33.5 57.5t64.5 22.5q41 0 69.5 -27t28.5 -67q0 -8 -2 -24l-43 -265h78q38 0 65 -27 t27 -65t-27 -65t-65 -27h-106l-33 -195h90q38 0 65 -27t27 -65t-27 -65t-65 -27h-119l-53 -332q-6 -35 -31 -57.5t-65 -22.5q-44 0 -71.5 28.5t-27.5 70.5q0 9 4 33l45 280h-165l-54 -332q-6 -35 -31 -57.5t-65 -22.5q-43 0 -70.5 28.5t-27.5 70.5q0 9 4 33l45 280h-66 q-38 0 -65 27t-27 65zM479 573h166l31 195h-164z" />
<glyph unicode="$" horiz-adv-x="1173" d="M59 279q0 45 32.5 77.5t76.5 32.5q45 0 90 -45q156 -156 336 -156q276 0 276 189q0 48 -25.5 85t-69 62t-99.5 46t-118 41t-123.5 42.5t-117.5 55.5t-99.5 75t-69 105.5t-25.5 142.5q0 145 95 246.5t282 122.5v117q0 40 28 68t66 28q40 0 68 -28t28 -68v-119 q123 -15 220 -63.5t149 -121.5q20 -30 20 -65q0 -45 -32.5 -77t-77.5 -32q-40 0 -88 45q-50 48 -126.5 78.5t-160.5 30.5q-119 0 -176.5 -46.5t-57.5 -115.5q0 -43 25.5 -76t69 -56t99.5 -43t118 -40.5t124 -44t118 -58t99.5 -79t69 -110.5t25.5 -148q0 -171 -107.5 -275.5 t-310.5 -124.5v-114q0 -40 -28 -68t-68 -28q-38 0 -66 28t-28 68v114q-143 18 -255.5 86t-168.5 158q-17 27 -17 58z" />
<glyph unicode="%" horiz-adv-x="1564" d="M74 1073q0 73 16.5 132t52 105t97.5 71.5t147 25.5q167 0 242.5 -90.5t75.5 -243.5q0 -72 -17 -130.5t-53 -105t-99 -72.5t-149 -26q-85 0 -147 26t-97.5 72.5t-52 105t-16.5 130.5zM258 1073q0 -162 129 -162q70 0 100.5 45.5t30.5 116.5q0 72 -30.5 117t-100.5 45 q-129 0 -129 -162zM358 78q0 21 11 43l643 1222q8 21 30.5 36.5t53.5 15.5q41 0 69.5 -27.5t28.5 -67.5q0 -20 -10 -40l-643 -1227q-27 -49 -86 -49q-41 0 -69 27t-28 67zM860 307q0 73 16.5 132t52.5 105t98 71.5t147 25.5q167 0 242 -90.5t75 -243.5q0 -151 -75.5 -242.5 t-241.5 -91.5q-85 0 -147 26t-98 72.5t-52.5 105t-16.5 130.5zM1044 307q0 -162 130 -162q70 0 100.5 45.5t30.5 116.5q0 72 -30.5 117t-100.5 45q-130 0 -130 -162z" />
<glyph unicode="&#x26;" horiz-adv-x="1298" d="M68 369q0 99 53.5 191t150.5 167q-86 177 -86 326q0 147 89 250.5t243 103.5q79 0 140.5 -27t98.5 -72.5t55.5 -101.5t18.5 -119q0 -115 -73 -216.5t-203 -200.5q59 -76 139.5 -152t161.5 -131q19 28 51 113q14 38 42 60t65 22q44 0 76 -33t32 -76q0 -22 -10 -55 q-27 -84 -78 -154q25 -18 150 -80q63 -29 63 -96q0 -43 -30.5 -73.5t-73.5 -30.5q-37 0 -110.5 35.5t-141.5 80.5q-150 -129 -379 -129q-196 0 -320 105.5t-124 292.5zM293 369q0 -88 62 -142.5t157 -54.5q65 0 107.5 14t91.5 47q-197 138 -326 318q-92 -80 -92 -182z M408 1053q0 -106 43 -205q159 113 159 239q0 51 -23 85t-71 34q-55 0 -81.5 -42t-26.5 -111z" />
<glyph unicode="'" horiz-adv-x="342" d="M74 1311q-2 40 23 62t75 22t74 -21.5t22 -62.5l-18 -328q-3 -74 -78 -74q-77 0 -80 74z" />
<glyph unicode="(" horiz-adv-x="645" d="M82 606q0 406 79.5 609.5t276.5 285.5q23 10 45 10q41 0 71 -29.5t30 -70.5q0 -27 -15.5 -53t-44.5 -39q-39 -17 -69.5 -41.5t-52.5 -58.5t-38.5 -68t-26.5 -85.5t-16.5 -95t-9 -111t-3.5 -119.5t-1 -134q0 -73 0.5 -120t3 -108t6.5 -101t11.5 -89t19 -81.5t27.5 -68 t37.5 -60t49.5 -47t62 -37.5q29 -13 44.5 -39.5t15.5 -53.5q0 -41 -30 -70.5t-71 -29.5q-22 0 -45 10q-197 82 -276.5 285.5t-79.5 609.5z" />
<glyph unicode=")" horiz-adv-x="645" d="M61 -199q0 27 15.5 53.5t44.5 39.5q34 15 62 37.5t49.5 47t37.5 60t27.5 68t19 81.5t11.5 89t6.5 101t3 108t0.5 120q0 82 -1 134t-3.5 119.5t-9 111t-16.5 95t-26.5 85.5t-38.5 68t-52.5 58.5t-69.5 41.5q-29 13 -44.5 39t-15.5 53q0 41 30 70.5t71 29.5q22 0 45 -10 q197 -82 276.5 -285.5t79.5 -609.5t-79.5 -609.5t-276.5 -285.5q-23 -10 -45 -10q-41 0 -71 29.5t-30 70.5z" />
<glyph unicode="*" horiz-adv-x="757" d="M63 1177.5q-9 21.5 0 51.5q16 61 74 43l182 -53l-6 182q-3 57 64 57q66 0 63 -57l-6 -182l182 53q58 18 74 -43q9 -30 0 -51.5t-41 -28.5l-180 -31l117 -160q34 -46 -17 -81q-53 -37 -86 14l-106 168l-107 -168q-33 -51 -86 -14q-50 35 -16 81l117 160l-181 31 q-32 7 -41 28.5z" />
<glyph unicode="+" horiz-adv-x="929" d="M0 446q0 38 28 66.5t66 28.5h273v272q0 40 29 69t69 29t69 -29t29 -69v-272h273q38 0 66 -28.5t28 -66.5t-28 -66t-66 -28h-273v-270q0 -40 -29 -69t-69 -29t-69 29t-29 69v270h-273q-38 0 -66 28t-28 66z" />
<glyph unicode="," horiz-adv-x="460" d="M72 -305q0 16 12 31q31 39 45 58.5t27.5 56t13.5 75.5q0 40 -37 100.5t-37 100.5q0 137 135 137q134 0 134 -137q0 -145 -64.5 -267.5t-150.5 -187.5q-16 -12 -33 -12q-19 0 -32 13t-13 32z" />
<glyph unicode="-" horiz-adv-x="774" d="M88 516q0 38 28 66t66 28h410q38 0 66 -28t28 -66t-28 -66t-66 -28h-410q-38 0 -66 28t-28 66z" />
<glyph unicode="." horiz-adv-x="460" d="M96 117q0 137 135 137q134 0 134 -137q0 -133 -134 -133q-135 0 -135 133z" />
<glyph unicode="/" horiz-adv-x="864" d="M53 -90q0 22 8 43l535 1513q13 35 42 53.5t62 18.5q46 0 78.5 -32.5t32.5 -78.5q0 -22 -8 -43l-535 -1513q-13 -35 -42 -53.5t-62 -18.5q-46 0 -78.5 32.5t-32.5 78.5z" />
<glyph unicode="0" horiz-adv-x="1251" d="M90 690q0 367 130.5 542t406.5 175q274 0 404 -175t130 -542q0 -369 -130 -544t-404 -175q-276 0 -406.5 175t-130.5 544zM324 690q0 -269 72 -390.5t231 -121.5q158 0 229.5 121t71.5 391q0 268 -71.5 390t-229.5 122t-230.5 -122.5t-72.5 -389.5z" />
<glyph unicode="1" horiz-adv-x="724" d="M49 1085q0 65 49 95l295 190q41 25 72 25q47 0 82 -35t35 -82v-1178q0 -47 -35 -81.5t-82 -34.5t-82 34.5t-35 81.5v975l-119 -80q-28 -22 -67 -22q-46 0 -79.5 33t-33.5 79z" />
<glyph unicode="2" horiz-adv-x="1132" d="M80 104q0 72 25 136.5t67.5 114t98 94.5t116.5 84t121.5 77t116 79t98 84t67.5 98t25 116q0 91 -64 153t-176 62q-163 0 -233 -147q-35 -66 -102 -66q-46 0 -78.5 32.5t-32.5 78.5q0 24 10 47q52 119 163 189.5t273 70.5q221 0 347.5 -114.5t126.5 -305.5q0 -88 -39 -169 t-102 -143t-138.5 -118t-151.5 -102.5t-139 -87.5t-102 -81.5t-39 -76.5h629q43 0 73.5 -31t30.5 -74t-30.5 -73.5t-73.5 -30.5h-783q-43 0 -73.5 30.5t-30.5 73.5z" />
<glyph unicode="3" horiz-adv-x="1153" d="M66 262q0 44 32 76.5t76 32.5q50 0 98 -54q59 -68 123.5 -103.5t157.5 -35.5q134 0 202 63t68 175q0 246 -243 246h-127q-47 0 -79 31t-32 75q0 38 27 72l288 329h-411q-43 0 -74 31t-31 74t31 73.5t74 30.5h655q43 0 74 -30.5t31 -73.5q0 -39 -27 -70l-299 -338 q105 -12 180.5 -53t117 -104t60.5 -135t19 -158q0 -213 -128 -328t-376 -115q-152 0 -275.5 64t-193.5 164q-18 27 -18 61z" />
<glyph unicode="4" horiz-adv-x="1148" d="M63 399q0 29 19 58l625 882q37 54 98 54q47 0 82 -35t35 -82v-772h71q43 0 74 -31t31 -74t-31 -73.5t-74 -30.5h-71v-195q0 -47 -35 -81.5t-82 -34.5t-82 34.5t-35 81.5v195h-520q-43 0 -74 30.5t-31 73.5zM365 504h323v471z" />
<glyph unicode="5" horiz-adv-x="1179" d="M57 301q0 44 32.5 76.5t76.5 32.5q57 0 96 -58q61 -92 130.5 -134t176.5 -42q125 0 200 72.5t75 212.5q0 138 -75 210t-200 72q-87 0 -143.5 -19t-116.5 -62q-3 -2 -13 -9t-14.5 -10t-14.5 -8t-17 -7.5t-17.5 -4.5t-21.5 -2q-45 0 -78 32t-33 76q0 15 4 35l103 530 q7 33 34.5 58.5t67.5 25.5h615q43 0 73.5 -30.5t30.5 -73.5t-30.5 -74t-73.5 -31h-535l-53 -268q96 47 233 47q115 0 207 -29t160 -87.5t104.5 -152.5t36.5 -218q0 -246 -136 -368t-372 -122q-121 0 -225.5 43.5t-168.5 103t-103 130.5q-15 27 -15 53z" />
<glyph unicode="6" horiz-adv-x="1204" d="M84 659q0 748 549 748q121 0 214.5 -34.5t141.5 -82.5q35 -35 35 -78t-31.5 -74.5t-74.5 -31.5q-32 0 -66 22q-52 36 -101.5 55t-117.5 19q-153 0 -233.5 -105.5t-80.5 -301.5q52 54 135.5 88.5t178.5 34.5q221 0 354 -122.5t133 -344.5q0 -123 -38 -216t-108.5 -150.5 t-163.5 -85.5t-208 -28q-134 0 -234.5 50.5t-162 143.5t-91.5 216.5t-30 277.5zM324 539q0 -170 72.5 -265.5t205.5 -95.5t209 65.5t76 207.5q0 126 -76 193t-195 67q-194 0 -292 -172z" />
<glyph unicode="7" horiz-adv-x="1038" d="M37 1274q0 43 30.5 73.5t73.5 30.5h750q43 0 73.5 -30.5t30.5 -73.5q0 -86 -31 -169.5t-80.5 -153.5t-109.5 -141.5t-119.5 -148.5t-109 -159t-80.5 -187.5t-31 -220.5q0 -47 -33.5 -78.5t-81.5 -31.5t-81 31.5t-33 78.5q0 113 30.5 223.5t80 198.5t109 170t118.5 150.5 t108.5 127t80 112t30.5 93.5h-621q-43 0 -73.5 31t-30.5 74z" />
<glyph unicode="8" horiz-adv-x="1177" d="M72 412q0 232 231 342q-71 38 -118.5 110t-47.5 164q0 183 118 281t333 98t332.5 -98t117.5 -281q0 -92 -47.5 -164t-118.5 -110q232 -110 232 -342q0 -217 -133.5 -329t-382.5 -112t-382.5 112t-133.5 329zM305 412q0 -114 76.5 -174t206.5 -60t206 60t76 174t-74 173.5 t-208 59.5t-208.5 -59.5t-74.5 -173.5zM367 1028q0 -87 58.5 -132.5t162.5 -45.5t162.5 45.5t58.5 132.5q0 84 -58 129t-163 45t-163 -45t-58 -129z" />
<glyph unicode="9" horiz-adv-x="1204" d="M84 928q0 123 38 216t108.5 150t163.5 85t208 28q134 0 234.5 -50.5t162 -143.5t91.5 -216.5t30 -277.5q0 -748 -549 -748q-121 0 -214.5 34.5t-141.5 82.5q-35 35 -35 78t32 74.5t75 31.5q31 0 65 -22q52 -36 101.5 -55t117.5 -19q153 0 233.5 106t80.5 302 q-52 -54 -135.5 -88.5t-178.5 -34.5q-221 0 -354 122.5t-133 344.5zM317 928q0 -126 76 -193t195 -67q100 0 174 46.5t119 125.5q0 170 -73 265t-206 95t-209 -65t-76 -207z" />
<glyph unicode=":" horiz-adv-x="460" d="M96 117q0 137 135 137q134 0 134 -137q0 -133 -134 -133q-135 0 -135 133zM96 797q0 137 135 137q134 0 134 -137q0 -133 -134 -133q-135 0 -135 133z" />
<glyph unicode=";" horiz-adv-x="460" d="M72 -305q0 16 12 31q31 39 45 58.5t27.5 56t13.5 75.5q0 40 -37 100.5t-37 100.5q0 137 135 137q134 0 134 -137q0 -145 -64.5 -267.5t-150.5 -187.5q-16 -12 -33 -12q-19 0 -32 13t-13 32zM96 797q0 137 135 137q134 0 134 -137q0 -133 -134 -133q-135 0 -135 133z" />
<glyph unicode="&#x3c;" horiz-adv-x="743" d="M0 481q0 47 45 82l543 412q24 18 57 18q40 0 69 -29t29 -69q0 -52 -41 -80l-452 -334l452 -334q41 -28 41 -79q0 -40 -29 -69.5t-69 -29.5q-32 0 -57 19l-543 411q-45 35 -45 82z" />
<glyph unicode="=" horiz-adv-x="929" d="M0 268q0 38 28 66t66 28h742q38 0 66 -28t28 -66t-28 -66t-66 -28h-742q-38 0 -66 28t-28 66zM0 623q0 38 28 66t66 28h742q38 0 66 -28t28 -66t-28 -66.5t-66 -28.5h-742q-38 0 -66 28.5t-28 66.5z" />
<glyph unicode="&#x3e;" horiz-adv-x="743" d="M0 68q0 51 41 79l453 334l-453 334q-41 28 -41 80q0 40 29 69t69 29q34 0 58 -18l542 -412q45 -35 45 -82t-45 -82l-542 -411q-25 -19 -58 -19q-40 0 -69 29.5t-29 69.5z" />
<glyph unicode="?" horiz-adv-x="927" d="M41 1034q0 175 111 274t307 99q203 0 315.5 -93.5t112.5 -264.5q0 -67 -21.5 -123.5t-56 -94.5t-76 -69.5t-83.5 -55t-76.5 -44.5t-56 -43.5t-21.5 -47.5q0 -20 20 -49q19 -28 19 -61q0 -49 -34.5 -80t-76.5 -31q-47 0 -80 33q-76 73 -76 174q0 52 22 96.5t57 76.5 t77.5 60.5t85 55.5t77.5 55.5t57 66t22 81.5q0 75 -54.5 116t-152.5 41q-89 0 -141 -44t-52 -128q0 -46 -33 -79t-79 -33t-79.5 33t-33.5 79zM283 117q0 137 135 137q133 0 133 -137q0 -133 -133 -133q-135 0 -135 133z" />
<glyph unicode="@" horiz-adv-x="1648" d="M80 365q0 359 196.5 545t548.5 186q217 0 382 -76.5t261.5 -234t96.5 -379.5q0 -57 -10.5 -112.5t-36.5 -112t-66 -99t-104 -69.5t-144 -27q-87 0 -138 36.5t-71 77.5q-88 -114 -245 -114q-117 0 -189 67t-72 174q0 106 75.5 165t185.5 59h211v28q0 56 -38 88.5 t-106 32.5q-85 0 -164 -59q-23 -17 -49 -17q-31 0 -52.5 21.5t-21.5 52.5q0 34 19 53q97 105 268 105q148 0 232 -71.5t84 -197.5v-249q0 -38 25 -59t61 -21q157 0 157 248q0 253 -148 385.5t-403 132.5q-128 0 -229 -32.5t-175 -99t-113.5 -174.5t-39.5 -253 q0 -288 148.5 -435t408.5 -147q258 0 418 96q21 12 45 12q37 0 62.5 -25.5t25.5 -62.5q0 -52 -45 -77q-203 -115 -506 -115q-349 0 -547 196t-198 558zM664 227q0 -96 131 -96q67 0 116.5 38.5t49.5 104.5v43h-189q-52 0 -80 -23.5t-28 -66.5z" />
<glyph unicode="A" horiz-adv-x="1277" d="M39 100q0 24 8 43l483 1178q12 28 39.5 51t69.5 23t69.5 -23t39.5 -51l483 -1178q8 -19 8 -43q0 -47 -35 -81.5t-82 -34.5q-38 0 -67 21.5t-43 55.5l-125 297h-496l-125 -297q-14 -34 -43 -55.5t-67 -21.5q-47 0 -82 34.5t-35 81.5zM471 575h336l-168 431z" />
<glyph unicode="B" horiz-adv-x="1163" d="M123 119v1141q0 49 34.5 83.5t84.5 34.5h368q112 0 195.5 -28.5t131 -79.5t70.5 -112.5t23 -135.5q0 -98 -42.5 -172.5t-108.5 -106.5q112 -43 162.5 -124t50.5 -205q0 -192 -114 -303t-331 -111h-405q-50 0 -84.5 35t-34.5 84zM360 213h287q203 0 203 201 q0 95 -51.5 147.5t-151.5 52.5h-287v-401zM360 815h250q93 0 138 47.5t45 128.5q0 174 -183 174h-250v-350z" />
<glyph unicode="C" horiz-adv-x="1310" d="M70 688q0 359 165 539t476 180q176 0 300.5 -60.5t192.5 -160.5q23 -36 23 -68q0 -44 -32.5 -76t-78.5 -32t-84 41q-67 73 -140.5 108t-180.5 35q-203 0 -299.5 -125.5t-96.5 -380.5q0 -266 95 -385t301 -119q113 0 185 29.5t146 105.5q46 46 88 46q46 0 78.5 -32.5 t32.5 -78.5q0 -34 -20 -61q-75 -100 -212 -161t-298 -61q-641 0 -641 717z" />
<glyph unicode="D" horiz-adv-x="1251" d="M123 119v1141q0 49 34.5 83.5t84.5 34.5h276q157 0 276.5 -37t208.5 -117.5t135 -215t46 -320.5t-46 -320.5t-135 -214t-208.5 -116.5t-276.5 -37h-276q-50 0 -84.5 35t-34.5 84zM360 213h158q102 0 177 24.5t131 79t84 147.5t28 224q0 256 -106.5 366.5t-313.5 110.5 h-158v-952z" />
<glyph unicode="E" horiz-adv-x="1071" d="M123 119v1141q0 49 34.5 83.5t84.5 34.5h639q44 0 75 -31t31 -75t-31 -75.5t-75 -31.5h-521v-366h388q43 0 73.5 -31t30.5 -74t-30.5 -73.5t-73.5 -30.5h-388v-377h543q44 0 75.5 -31.5t31.5 -75.5t-31.5 -75t-75.5 -31h-661q-50 0 -84.5 35t-34.5 84z" />
<glyph unicode="F" horiz-adv-x="1071" d="M123 102v1158q0 49 34.5 83.5t84.5 34.5h639q44 0 75 -31t31 -75t-31 -75.5t-75 -31.5h-521v-379h388q43 0 73.5 -30.5t30.5 -73.5t-30.5 -73.5t-73.5 -30.5h-388v-476q0 -50 -34 -84t-84 -34t-84.5 34.5t-34.5 83.5z" />
<glyph unicode="G" horiz-adv-x="1382" d="M70 688q0 359 165 539t476 180q176 0 300.5 -60.5t192.5 -160.5q23 -36 23 -68q0 -44 -32.5 -76t-78.5 -32t-84 41q-67 73 -140.5 108t-180.5 35q-203 0 -299.5 -125.5t-96.5 -380.5q0 -266 95 -385t301 -119q224 0 338 117v229h-279q-43 0 -73.5 31t-30.5 74t30.5 73.5 t73.5 30.5h397q44 0 78.5 -32.5t34.5 -75.5v-328q0 -65 -35 -108q-74 -99 -222.5 -161.5t-311.5 -62.5q-641 0 -641 717z" />
<glyph unicode="H" horiz-adv-x="1306" d="M123 102v1174q0 50 34.5 84.5t84.5 34.5q49 0 83.5 -34.5t34.5 -84.5v-463h586v463q0 50 35 84.5t84 34.5t84 -34.5t35 -84.5v-1174q0 -49 -34.5 -83.5t-84.5 -34.5t-84.5 34.5t-34.5 83.5v494h-586v-494q0 -50 -34 -84t-84 -34t-84.5 34.5t-34.5 83.5z" />
<glyph unicode="I" horiz-adv-x="483" d="M123 102v1174q0 50 34.5 84.5t84.5 34.5q49 0 83.5 -34.5t34.5 -84.5v-1174q0 -50 -34 -84t-84 -34t-84.5 34.5t-34.5 83.5z" />
<glyph unicode="J" horiz-adv-x="882" d="M31 123q0 44 31 75t75 31q20 0 47 -10q79 -31 148 -31q98 0 144 65.5t46 176.5v846q0 50 35 84.5t84 34.5t84 -34.5t35 -84.5v-846q0 -102 -23.5 -182.5t-72.5 -143.5t-133.5 -97t-198.5 -34q-64 0 -133.5 15.5t-110.5 40.5q-57 29 -57 94z" />
<glyph unicode="K" horiz-adv-x="1138" d="M123 102v1174q0 50 34.5 84.5t84.5 34.5q49 0 83.5 -34.5t34.5 -84.5v-469l492 549q36 39 86 39q47 0 81 -34t34 -81q0 -44 -31 -78l-385 -418l453 -616q22 -28 22 -68q0 -47 -35 -81.5t-82 -34.5q-61 0 -96 51l-422 583l-117 -122v-394q0 -50 -34 -84t-84 -34 t-84.5 34.5t-34.5 83.5z" />
<glyph unicode="L" horiz-adv-x="1005" d="M123 115v1161q0 50 34.5 84.5t84.5 34.5q49 0 83.5 -34.5t34.5 -84.5v-1055h486q50 0 82.5 -32t32.5 -78q0 -48 -32 -79.5t-83 -31.5h-606q-51 0 -84 32.5t-33 82.5z" />
<glyph unicode="M" horiz-adv-x="1546" d="M113 100v1178q0 47 34.5 82t81.5 35q69 0 105 -66l434 -778l434 778q36 66 105 66q47 0 81.5 -35t34.5 -82v-1178q0 -47 -34.5 -81.5t-81.5 -34.5t-82 34.5t-35 81.5v746l-322 -572q-31 -57 -100 -57t-100 57l-322 572v-746q0 -47 -35 -81.5t-82 -34.5t-81.5 34.5 t-34.5 81.5z" />
<glyph unicode="N" horiz-adv-x="1275" d="M113 100v1178q0 47 34.5 82t81.5 35q63 0 95 -49l606 -879v811q0 47 35 82t82 35t81.5 -35t34.5 -82v-1178q0 -47 -34.5 -81.5t-81.5 -34.5q-64 0 -97 51l-604 872v-807q0 -47 -35 -81.5t-82 -34.5t-81.5 34.5t-34.5 81.5z" />
<glyph unicode="O" d="M70 688q0 359 167 539t482 180t482 -180t167 -539q0 -355 -167.5 -536t-481.5 -181t-481.5 181t-167.5 536zM315 688q0 -504 404 -504q403 0 403 504q0 255 -100 380.5t-303 125.5q-404 0 -404 -506z" />
<glyph unicode="P" horiz-adv-x="1130" d="M123 102v1158q0 49 34.5 83.5t84.5 34.5h391q190 0 310 -107t120 -313q0 -205 -119.5 -313t-310.5 -108h-273v-435q0 -50 -34 -84t-84 -34t-84.5 34.5t-34.5 83.5zM360 750h254q96 0 149.5 54.5t53.5 153.5q0 100 -54 153.5t-149 53.5h-254v-415z" />
<glyph unicode="Q" d="M70 688q0 359 167 539t482 180t482 -180t167 -539q0 -216 -68.5 -370.5t-193.5 -237.5q50 -6 101.5 -31.5t74.5 -56.5q27 -36 27 -74q0 -47 -33.5 -82t-83.5 -35q-47 0 -82 35q-53 52 -95 77.5t-113 41t-183 16.5q-314 0 -481.5 181t-167.5 536zM315 688q0 -504 404 -504 q403 0 403 504q0 255 -100 380.5t-303 125.5q-404 0 -404 -506z" />
<glyph unicode="R" horiz-adv-x="1146" d="M123 102v1158q0 49 34.5 83.5t84.5 34.5h391q134 0 233.5 -59.5t149 -155.5t49.5 -213q0 -99 -37 -186.5t-110 -148t-168 -72.5l303 -369q24 -33 24 -72q0 -49 -34.5 -83.5t-84.5 -34.5q-60 0 -92 43l-372 501h-134v-426q0 -50 -34 -84t-84 -34t-84.5 34.5t-34.5 83.5z M360 737h277q90 0 136 62t46 151q0 91 -47 153t-141 62h-271v-428z" />
<glyph unicode="S" horiz-adv-x="1173" d="M59 279q0 45 32.5 77.5t76.5 32.5q45 0 90 -45q156 -156 336 -156q276 0 276 189q0 48 -25.5 85t-69 62t-99.5 46t-118 41t-123.5 42.5t-117.5 55.5t-99.5 75t-69 105.5t-25.5 142.5q0 163 119.5 269t351.5 106q153 0 278 -52.5t187 -140.5q20 -30 20 -65 q0 -45 -32.5 -77t-77.5 -32q-40 0 -88 45q-50 48 -126.5 78.5t-160.5 30.5q-119 0 -176.5 -46.5t-57.5 -115.5q0 -43 25.5 -76t69 -56t99.5 -43t118 -40.5t124 -44t118 -58t99.5 -79t69 -110.5t25.5 -148q0 -191 -132 -298.5t-382 -107.5q-173 0 -313 73t-205 177 q-17 27 -17 58z" />
<glyph unicode="T" horiz-adv-x="1159" d="M43 1274q0 43 30.5 73.5t73.5 30.5h865q43 0 73.5 -30.5t30.5 -73.5t-30.5 -74t-73.5 -31h-314v-1067q0 -50 -34 -84t-84 -34t-84.5 34.5t-34.5 83.5v1067h-314q-43 0 -73.5 31t-30.5 74z" />
<glyph unicode="U" horiz-adv-x="1267" d="M123 451v825q0 50 34.5 84.5t84.5 34.5q49 0 83.5 -34.5t34.5 -84.5v-825q0 -52 12 -96t40.5 -85.5t86.5 -65.5t140 -24t140 24t86.5 65.5t40.5 85.5t12 96v825q0 50 34.5 84.5t83.5 34.5q50 0 84.5 -34.5t34.5 -84.5v-825q0 -75 -13.5 -140t-49.5 -129t-92 -109.5 t-148.5 -73.5t-212.5 -28t-212.5 28t-148.5 73.5t-92 109.5t-49.5 129t-13.5 140z" />
<glyph unicode="V" horiz-adv-x="1245" d="M39 1276q0 50 34.5 84.5t84.5 34.5q41 0 69.5 -21t38.5 -49l357 -944l356 944q11 27 39 48.5t69 21.5q49 0 84 -34.5t35 -84.5q0 -26 -8 -45l-465 -1172q-29 -75 -110 -75q-82 0 -111 75l-465 1172q-8 19 -8 45z" />
<glyph unicode="W" horiz-adv-x="1716" d="M39 1276q0 50 34.5 84.5t84.5 34.5q45 0 74 -25.5t38 -56.5l240 -860l233 856q10 39 43 62.5t72 23.5t72 -23.5t43 -62.5l233 -856l240 860q9 31 38.5 56.5t74.5 25.5q49 0 83.5 -34.5t34.5 -84.5q0 -19 -6 -37l-350 -1173q-11 -36 -42.5 -59t-70.5 -23q-41 0 -72 24.5 t-42 63.5l-236 839l-235 -839q-11 -39 -42.5 -63.5t-72.5 -24.5q-39 0 -70.5 23t-42.5 59l-350 1173q-6 18 -6 37z" />
<glyph unicode="X" horiz-adv-x="1110" d="M23 102q0 39 20 66l383 537l-356 501q-23 33 -23 70q0 50 34.5 84.5t84.5 34.5q62 0 96 -49l293 -437l293 437q34 49 96 49q50 0 84.5 -34.5t34.5 -84.5q0 -37 -23 -70l-356 -501l383 -537q20 -27 20 -66q0 -50 -34.5 -84t-83.5 -34q-61 0 -99 53l-315 467l-315 -467 q-38 -53 -99 -53q-49 0 -83.5 34t-34.5 84z" />
<glyph unicode="Y" horiz-adv-x="1134" d="M39 1276q0 50 34.5 84.5t84.5 34.5q63 0 100 -56l309 -485l310 485q34 56 100 56q49 0 84 -34.5t35 -84.5q0 -39 -19 -64l-391 -583v-527q0 -49 -34.5 -83.5t-84.5 -34.5q-49 0 -83.5 34t-34.5 84v527l-392 583q-18 24 -18 64z" />
<glyph unicode="Z" horiz-adv-x="1107" d="M31 106q0 37 20 64l688 999h-563q-43 0 -73.5 31t-30.5 74t30.5 73.5t73.5 30.5h774q43 0 74 -30.5t31 -73.5q0 -33 -19 -60l-686 -1001h625q44 0 75 -31.5t31 -75.5t-31 -75t-75 -31h-838q-44 0 -75 31t-31 75z" />
<glyph unicode="[" horiz-adv-x="579" d="M123 -193v1598q0 45 32 75.5t81 30.5h192q40 0 68 -28t28 -68t-28 -68t-68 -28h-84v-1425h84q40 0 68 -28.5t28 -68.5t-28 -68t-68 -28h-192q-49 0 -81 30t-32 76z" />
<glyph unicode="\" horiz-adv-x="864" d="M53 1427q0 46 32.5 78.5t78.5 32.5q33 0 62 -18.5t42 -53.5l535 -1513q8 -21 8 -43q0 -46 -32.5 -78.5t-78.5 -32.5q-33 0 -62 18.5t-42 53.5l-535 1513q-8 21 -8 43z" />
<glyph unicode="]" horiz-adv-x="579" d="M55 -203q0 40 28.5 68.5t68.5 28.5h84v1425h-84q-40 0 -68.5 28t-28.5 68t28.5 68t68.5 28h192q49 0 81 -30.5t32 -75.5v-1598q0 -46 -32 -76t-81 -30h-192q-40 0 -68.5 28t-28.5 68z" />
<glyph unicode="^" horiz-adv-x="995" d="M82 768q0 26 12 47l324 555q27 45 80 45t80 -45l323 -555q12 -21 12 -47q0 -38 -28 -66t-66 -28q-27 0 -49 13t-33 34l-239 432l-240 -432q-11 -21 -33 -34t-49 -13q-38 0 -66 28t-28 66z" />
<glyph unicode="_" horiz-adv-x="862" d="M-27 -158q0 38 28.5 66.5t66.5 28.5h729q38 0 66 -28.5t28 -66.5t-28 -66t-66 -28h-729q-38 0 -66.5 28t-28.5 66z" />
<glyph unicode="`" horiz-adv-x="786" d="M221 1294q1 35 33 66q31 31 66 32.5t57 -26.5l174 -221q18 -18 16 -43.5t-26 -48.5q-46 -43 -95 0l-200 184q-26 22 -25 57z" />
<glyph unicode="a" horiz-adv-x="966" d="M55 283q0 136 95.5 212t236.5 76h268v37q0 70 -49 112t-137 42q-60 0 -108 -21t-97 -57q-29 -20 -61 -20q-40 0 -68.5 28t-28.5 68q0 37 27 67q119 131 336 131q191 0 298 -90t107 -252v-524q0 -44 -32 -76t-76 -32t-76.5 32t-32.5 76q-74 -119 -268 -119q-150 0 -242 86 t-92 224zM276 283q0 -60 42.5 -92.5t127.5 -32.5q86 0 147.5 50.5t61.5 133.5v57h-239q-67 0 -103.5 -30t-36.5 -86z" />
<glyph unicode="b" horiz-adv-x="1026" d="M102 383v965q0 46 32.5 78t78.5 32t78.5 -32t32.5 -78v-471q33 33 94.5 57t130.5 24q198 0 307 -124t109 -369q0 -246 -114 -369t-325 -123q-192 0 -308 106t-116 304zM324 383q0 -104 55.5 -162.5t146.5 -58.5q107 0 163 76.5t56 226.5q0 151 -56.5 228t-162.5 77 q-34 0 -67.5 -10.5t-57 -26t-41.5 -31t-27 -26.5l-9 -10v-283z" />
<glyph unicode="c" horiz-adv-x="923" d="M59 467q0 246 115.5 368.5t329.5 122.5q86 0 161 -27t112 -55.5t61 -58.5q22 -32 22 -63q0 -41 -28.5 -70t-69.5 -29q-44 0 -76 35q-74 80 -182 80q-107 0 -164 -79t-57 -224q0 -148 57 -226.5t164 -78.5q43 0 85.5 15t63 28.5t54.5 38.5q29 20 61 20q41 0 69.5 -28.5 t28.5 -69.5q0 -44 -35 -76q-48 -44 -132 -80.5t-195 -36.5q-213 0 -329 124t-116 370z" />
<glyph unicode="d" horiz-adv-x="1013" d="M59 465q0 245 109 369t307 124q69 0 130.5 -24t94.5 -57v471q0 46 32.5 78t78.5 32t78.5 -32t32.5 -78v-965q0 -198 -116 -304t-308 -106q-211 0 -325 123t-114 369zM279 465q0 -150 56 -226.5t163 -76.5q91 0 146.5 58.5t55.5 162.5v283q-3 4 -9 11t-26.5 25t-42.5 32 t-56 25t-68 11q-106 0 -162.5 -77t-56.5 -228z" />
<glyph unicode="e" horiz-adv-x="964" d="M61 469q0 234 116.5 361.5t326.5 127.5q99 0 175 -29.5t119 -72.5t70 -101t36 -107t9 -97q0 -31 -1 -47.5t-7.5 -42.5t-18.5 -39.5t-37 -24t-61 -10.5h-505q0 -106 66 -160.5t173 -54.5q108 0 203 64q36 22 66 22q40 0 68 -28t28 -68q0 -45 -35 -76q-24 -23 -59.5 -45 t-110.5 -45t-160 -23q-220 0 -340.5 123t-120.5 373zM289 571h405q0 83 -48.5 141t-141.5 58q-92 0 -150 -51.5t-65 -147.5z" />
<glyph unicode="f" horiz-adv-x="659" d="M33 838q0 38 27 65t65 27h43v110q0 98 41.5 178.5t132 132.5t217.5 52q40 0 68 -28t28 -68t-28 -68.5t-68 -28.5q-82 0 -126 -41.5t-44 -111.5v-127h137q38 0 65 -27t27 -65t-27 -65.5t-65 -27.5h-137v-655q0 -45 -32 -75.5t-78 -30.5q-49 0 -80 30t-31 76v655h-43 q-38 0 -65 27.5t-27 65.5z" />
<glyph unicode="g" horiz-adv-x="1017" d="M51 -109q0 124 123 201q-96 60 -96 164q0 82 69 139q-65 84 -65 213q0 163 106.5 256.5t294.5 93.5q116 0 197 -34q75 94 205 94q38 0 65 -27t27 -65t-27 -65t-65 -27q-40 0 -62 -19q62 -83 62 -207q0 -163 -106.5 -256.5t-295.5 -93.5q-105 0 -192 33q-19 -16 -19 -43 q0 -70 121 -70h191q82 0 149 -15t120 -47t82.5 -87.5t29.5 -130.5q0 -151 -126.5 -230.5t-330.5 -79.5q-71 0 -133.5 8t-123.5 29.5t-104 55t-69.5 87t-26.5 123.5zM272 -109q0 -114 238 -114q100 0 166.5 30.5t66.5 90.5q0 48 -44 74t-115 26h-193q-56 -12 -87.5 -42 t-31.5 -65zM303 608q0 -71 48 -117.5t132 -46.5t132.5 46.5t48.5 117.5t-48.5 117.5t-132.5 46.5t-132 -46.5t-48 -117.5z" />
<glyph unicode="h" horiz-adv-x="1021" d="M102 90v1258q0 46 32.5 78t78.5 32t78.5 -32t32.5 -78v-512q34 51 100.5 86.5t161.5 35.5q344 0 344 -356v-512q0 -45 -32.5 -75.5t-78.5 -30.5q-49 0 -79.5 30t-30.5 76v471q0 197 -181 197q-204 0 -204 -211v-457q0 -46 -32 -76t-79 -30t-79 30t-32 76z" />
<glyph unicode="i" horiz-adv-x="436" d="M92 1186q0 135 131 135q133 0 133 -135q0 -61 -34.5 -95t-98.5 -34q-63 0 -97 34.5t-34 94.5zM113 94v742q0 46 32 78t78 32t78.5 -32t32.5 -78v-742q0 -46 -32.5 -78t-78.5 -32t-78 32t-32 78z" />
<glyph unicode="j" horiz-adv-x="436" d="M-100 -238q0 41 30.5 72t71.5 31q49 0 80 34.5t31 84.5v852q0 46 32 78t78 32t78.5 -32t32.5 -78v-852q0 -138 -94 -231t-238 -93q-41 0 -71.5 30.5t-30.5 71.5zM92 1186q0 135 131 135q133 0 133 -135q0 -61 -34.5 -95t-98.5 -34q-63 0 -97 34.5t-34 94.5z" />
<glyph unicode="k" horiz-adv-x="927" d="M113 90v1262q0 46 31.5 76t78.5 30q46 0 78.5 -30.5t32.5 -75.5v-723l371 291q35 26 71 26q44 0 75.5 -31t31.5 -75q0 -54 -41 -84l-269 -205l301 -395q23 -33 23 -66q0 -44 -31 -75t-75 -31q-55 0 -86 43l-306 409l-65 -51v-295q0 -45 -32.5 -75.5t-78.5 -30.5 q-47 0 -78.5 30t-31.5 76z" />
<glyph unicode="l" horiz-adv-x="497" d="M113 246v1102q0 46 32 78t78 32t78.5 -32t32.5 -78v-1123q0 -17 13 -27t26 -10q43 0 72.5 -29.5t29.5 -72.5t-29.5 -72.5t-72.5 -29.5q-122 0 -191 67.5t-69 194.5z" />
<glyph unicode="m" horiz-adv-x="1628" d="M102 90v746q0 46 32.5 78t78.5 32t78.5 -32t32.5 -78q34 51 100.5 86.5t161.5 35.5q119 0 190.5 -34t112.5 -99q51 67 121 100t172 33q81 0 143.5 -20t101.5 -53.5t64 -80.5t35 -96t10 -106v-512q0 -45 -32.5 -75.5t-78.5 -30.5q-49 0 -79.5 30t-30.5 76v471 q0 197 -180 197q-106 0 -155.5 -52t-49.5 -143v-473q0 -45 -32.5 -75.5t-78.5 -30.5q-49 0 -79.5 30t-30.5 76v471q0 197 -181 197q-204 0 -204 -211v-457q0 -46 -32 -76t-79 -30t-79 30t-32 76z" />
<glyph unicode="n" horiz-adv-x="1021" d="M102 90v746q0 46 32.5 78t78.5 32t78.5 -32t32.5 -78q34 51 100.5 86.5t161.5 35.5q344 0 344 -356v-512q0 -45 -32.5 -75.5t-78.5 -30.5q-49 0 -79.5 30t-30.5 76v471q0 197 -181 197q-204 0 -204 -211v-457q0 -46 -32 -76t-79 -30t-79 30t-32 76z" />
<glyph unicode="o" horiz-adv-x="1015" d="M59 465q0 246 118 369.5t331 123.5t330.5 -123.5t117.5 -369.5q0 -245 -118 -368.5t-330 -123.5t-330.5 123.5t-118.5 368.5zM283 465q0 -150 57 -226.5t168 -76.5t168 76.5t57 226.5q0 305 -225 305t-225 -305z" />
<glyph unicode="p" horiz-adv-x="1052" d="M113 -301v1137q0 46 32 78t78 32t78.5 -32t32.5 -78q27 45 94.5 83.5t146.5 38.5q204 0 310 -122t106 -369t-107 -370.5t-309 -123.5q-76 0 -140 23.5t-101 64.5v-362q0 -46 -32.5 -78.5t-78.5 -32.5t-78 32.5t-32 78.5zM328 465q0 -150 55.5 -226.5t163.5 -76.5 t163.5 76.5t55.5 226.5q0 305 -219 305t-219 -305z" />
<glyph unicode="q" horiz-adv-x="1011" d="M61 467q0 246 114 368.5t325 122.5q192 0 308 -105.5t116 -303.5v-850q0 -46 -32.5 -78.5t-78.5 -32.5t-78.5 32.5t-32.5 78.5v356q-34 -34 -95 -58t-130 -24q-198 0 -307 124.5t-109 369.5zM281 467q0 -151 56.5 -228t162.5 -77q34 0 67.5 10.5t57 26t41.5 31t27 26.5 l9 10v283q0 104 -55.5 162.5t-146.5 58.5q-107 0 -163 -76.5t-56 -226.5z" />
<glyph unicode="r" horiz-adv-x="663" d="M102 94v742q0 46 32.5 78t78.5 32t78.5 -32t32.5 -78v-11q29 59 92 95t129 36q43 0 73.5 -30.5t30.5 -73.5t-30.5 -73.5t-73.5 -30.5q-104 0 -162.5 -62t-58.5 -166v-426q0 -46 -32.5 -78t-78.5 -32t-78.5 32t-32.5 78z" />
<glyph unicode="s" horiz-adv-x="870" d="M53 184q0 40 29.5 69.5t69.5 29.5q31 0 63 -25q103 -84 225 -84q152 0 152 82q0 29 -21.5 51.5t-57 36t-80.5 29t-92 29t-92 38t-80.5 54.5t-57 79t-21.5 111q0 132 96.5 203t245.5 71q106 0 197 -36t135 -91q20 -27 20 -61q0 -40 -29 -69t-69 -29q-30 0 -70 28 q-90 66 -184 66q-58 0 -89.5 -20t-31.5 -58q0 -30 28 -53t72 -38.5t98 -31t108 -38.5t98 -54t72 -83.5t28 -121.5q0 -140 -105 -215.5t-270 -75.5q-121 0 -219 44.5t-143 99.5q-25 31 -25 63z" />
<glyph unicode="t" horiz-adv-x="626" d="M35 838q0 38 27 65t65 27h47v172q0 44 32.5 76t76.5 32t76 -32t32 -76v-172h92q38 0 65 -27t27 -65t-27 -65.5t-65 -27.5h-92v-495q0 -33 24 -53.5t54 -20.5q40 0 68 -28t28 -68t-28 -68t-68 -28q-135 0 -215 77.5t-80 200.5v483h-47q-38 0 -65 27.5t-27 65.5z" />
<glyph unicode="u" horiz-adv-x="993" d="M92 358v478q0 46 32.5 78t78.5 32t78 -32t32 -78v-478q0 -83 40.5 -133.5t144.5 -50.5q182 0 182 184v478q0 46 32.5 78t78.5 32t78 -32t32 -78v-478q0 -82 -17.5 -146t-60 -120.5t-125 -87.5t-200.5 -31q-96 0 -168.5 21t-117 56t-72 86t-38 104t-10.5 118z" />
<glyph unicode="v" horiz-adv-x="925" d="M25 836q0 46 32 78t78 32q41 0 67 -21.5t36 -47.5l225 -570l225 570q10 26 36 47.5t67 21.5q46 0 78 -32t32 -78q0 -23 -8 -43l-328 -742q-14 -31 -40.5 -49t-61.5 -18t-62 18t-41 49l-327 742q-8 20 -8 43z" />
<glyph unicode="w" horiz-adv-x="1302" d="M25 836q0 46 32 78t78 32q36 0 64.5 -19.5t40.5 -52.5l170 -503l137 495q9 32 36.5 56t69.5 24q39 0 68 -22.5t37 -51.5l137 -501l168 503q12 34 40.5 53t65.5 19q47 0 79 -30t32 -76q0 -20 -10 -43l-281 -744q-25 -69 -102 -69q-37 0 -66.5 21.5t-40.5 55.5l-127 449 l-127 -447q-10 -35 -39.5 -57t-66.5 -22q-36 0 -64.5 20t-40.5 51l-280 731q-10 23 -10 50z" />
<glyph unicode="x" horiz-adv-x="864" d="M33 94q0 35 22 68l248 311l-240 295q-22 32 -22 68q0 46 32.5 78t78.5 32q56 0 88 -43l192 -264l193 264q32 43 88 43q46 0 78 -32t32 -78q0 -36 -22 -68l-240 -295l248 -311q22 -33 22 -68q0 -46 -32 -78t-78 -32q-58 0 -88 43l-201 282q-138 -194 -201 -282 q-30 -43 -88 -43q-46 0 -78 32t-32 78z" />
<glyph unicode="y" horiz-adv-x="925" d="M-18 -309q0 44 30.5 73t75.5 29q91 0 147 65.5t113 207.5l-315 727q-8 20 -8 43q0 46 32 78t78 32q41 0 67 -21.5t36 -47.5l225 -570l225 570q10 26 36 47.5t67 21.5q46 0 78 -32t32 -78q0 -23 -8 -43l-381 -861q-154 -344 -424 -344q-45 0 -75.5 29.5t-30.5 73.5z" />
<glyph unicode="z" horiz-adv-x="837" d="M35 94q0 33 22 62l441 589h-346q-38 0 -65.5 27.5t-27.5 65.5t27.5 65t65.5 27h526q40 0 69 -29.5t29 -69.5q0 -34 -22 -63l-432 -580h372q38 0 66 -28t28 -66t-28 -66t-66 -28h-565q-38 0 -66 28t-28 66z" />
<glyph unicode="{" horiz-adv-x="733" d="M61 606q0 35 25.5 60.5t60.5 25.5q69 0 101.5 26t32.5 101q0 65 -16.5 200t-16.5 214q0 113 80.5 195.5t238.5 82.5q41 0 71 -29.5t30 -70.5t-30 -70.5t-71 -29.5q-46 0 -71 -26t-25 -71q0 -66 9 -174.5t9 -160.5q0 -114 -33 -177.5t-112 -95.5q79 -32 112 -95t33 -177 q0 -52 -9 -161t-9 -175q0 -45 24.5 -70.5t71.5 -25.5q41 0 71 -30t30 -71t-30 -70.5t-71 -29.5q-82 0 -145 24.5t-100 65t-55.5 88.5t-18.5 101q0 79 16.5 213.5t16.5 199.5q0 75 -32.5 101t-101.5 26q-35 0 -60.5 25.5t-25.5 60.5z" />
<glyph unicode="|" horiz-adv-x="450" d="M113 -215v1757q0 46 33 79.5t79 33.5t79.5 -33.5t33.5 -79.5v-1757q0 -46 -33.5 -79.5t-79.5 -33.5t-79 33.5t-33 79.5z" />
<glyph unicode="}" horiz-adv-x="733" d="M66 -199q0 41 29.5 71t70.5 30q47 0 71.5 25.5t24.5 70.5q0 66 -9 175t-9 161q0 114 33 177t112 95q-79 32 -112 95.5t-33 177.5q0 52 9 160.5t9 174.5q0 45 -25 71t-71 26q-41 0 -70.5 29.5t-29.5 70.5t29.5 70.5t70.5 29.5q158 0 238.5 -82.5t80.5 -195.5 q0 -79 -16 -214t-16 -200q0 -75 32 -101t101 -26q35 0 60.5 -25.5t25.5 -60.5t-25.5 -60.5t-60.5 -25.5q-69 0 -101 -26t-32 -101q0 -65 16 -199.5t16 -213.5q0 -53 -18.5 -101t-55.5 -88.5t-100 -65t-145 -24.5q-41 0 -70.5 29.5t-29.5 70.5z" />
<glyph unicode="~" horiz-adv-x="958" d="M49 565q0 19 6 37q23 69 87 116.5t165 47.5q60 0 126.5 -30t123.5 -59.5t94 -29.5q51 0 76 49q10 22 32.5 38t53.5 16q40 0 68 -28.5t28 -68.5q0 -19 -6 -37q-23 -69 -87 -116t-165 -47q-47 0 -99 18.5t-88.5 41.5t-80 41.5t-76.5 18.5q-31 0 -47 -13t-29 -38 q-10 -22 -32.5 -37.5t-53.5 -15.5q-40 0 -68 28t-28 68z" />
<glyph unicode="&#xa1;" horiz-adv-x="434" d="M84 825q0 133 135 133q133 0 133 -133q0 -137 -133 -137q-135 0 -135 137zM92 -338l37 815q2 36 24 57t66 21q41 0 62.5 -21.5t23.5 -56.5l39 -815q3 -58 -30 -86.5t-95 -28.5q-63 0 -96.5 28.5t-30.5 86.5z" />
<glyph unicode="&#xa2;" horiz-adv-x="923" d="M59 467q0 216 91 338t260 147v76q0 40 28 68t66 28q40 0 68 -28t28 -68v-80q86 -17 146 -55t92 -76q22 -32 22 -63q0 -41 -28.5 -70t-69.5 -29q-44 0 -76 35q-74 80 -182 80q-107 0 -164 -79t-57 -224q0 -148 57 -226.5t164 -78.5q44 0 85.5 14.5t62.5 28.5t55 39 q29 20 61 20q41 0 69.5 -28.5t28.5 -69.5q0 -44 -35 -76q-94 -84 -231 -108v-82q0 -40 -28 -68.5t-68 -28.5q-38 0 -66 28.5t-28 68.5v80q-169 25 -260 147.5t-91 339.5z" />
<glyph unicode="&#xa3;" horiz-adv-x="1200" d="M55 639q0 43 30 72.5t73 29.5h30q-69 142 -69 254q0 175 128.5 293.5t332.5 118.5q171 0 293.5 -72t177.5 -200q8 -21 8 -43q0 -44 -32.5 -76.5t-76.5 -32.5q-65 0 -100 68q-82 151 -270 151q-106 0 -171 -58.5t-65 -148.5q0 -64 20 -122t58 -132h293q43 0 72.5 -29.5 t29.5 -72.5t-29.5 -72.5t-72.5 -29.5h-211q10 -45 10 -84q0 -68 -36.5 -134.5t-94.5 -111.5q71 33 139 33q59 0 146 -32t133 -32q97 0 133 76q31 61 100 61q46 0 78.5 -32t32.5 -78q0 -27 -12 -51q-88 -183 -322 -183q-60 0 -176 45t-180 45q-50 0 -83 -12t-77 -43 q-34 -24 -70 -24q-44 0 -76 32t-32 76q0 50 39 84q141 127 141 264q0 48 -16 101h-123q-43 0 -73 29.5t-30 72.5z" />
<glyph unicode="&#xa4;" horiz-adv-x="958" d="M39 313q0 45 33 78l57 55q-47 78 -47 189q0 109 53 192l-61 54q-35 31 -35 80q0 44 31 75t75 31q40 0 76 -31l62 -61q82 49 196 49q115 0 197 -49l61 61q36 31 76 31q44 0 75.5 -31t31.5 -75q0 -49 -35 -80l-62 -54q54 -85 54 -192q0 -109 -48 -189l58 -55q33 -33 33 -78 q0 -44 -31.5 -75t-75.5 -31q-40 0 -76 31l-57 57q-85 -49 -201 -49q-115 0 -200 49l-58 -57q-36 -31 -76 -31q-44 0 -75 31t-31 75zM293 635q0 -80 52 -135.5t134 -55.5t134.5 55.5t52.5 135.5q0 81 -52.5 135.5t-134.5 54.5t-134 -54.5t-52 -135.5z" />
<glyph unicode="&#xa5;" horiz-adv-x="1134" d="M39 1276q0 50 34.5 84.5t84.5 34.5q63 0 100 -56l309 -485l310 485q34 56 100 56q49 0 84 -34.5t35 -84.5q0 -39 -19 -64l-350 -522h180q38 0 66 -28t28 -66t-28 -66t-66 -28h-221v-84h221q38 0 66 -28t28 -66t-28 -66.5t-66 -28.5h-221v-127q0 -49 -34.5 -83.5 t-84.5 -34.5q-49 0 -83.5 34t-34.5 84v127h-222q-38 0 -66 28.5t-28 66.5t28 66t66 28h222v84h-222q-38 0 -66 28t-28 66t28 66t66 28h181l-351 522q-18 24 -18 64z" />
<glyph unicode="&#xa6;" horiz-adv-x="450" d="M113 -215v702q0 46 33 79.5t79 33.5t79.5 -33.5t33.5 -79.5v-702q0 -46 -33.5 -79.5t-79.5 -33.5t-79 33.5t-33 79.5zM113 842v700q0 46 33 79.5t79 33.5t79.5 -33.5t33.5 -79.5v-700q0 -46 -33.5 -79.5t-79.5 -33.5t-79 33.5t-33 79.5z" />
<glyph unicode="&#xa7;" horiz-adv-x="1013" d="M47 584q0 140 119 239q-92 99 -92 232q0 150 114 251t322 101q264 0 424 -182q22 -25 22 -66q0 -43 -30.5 -73.5t-73.5 -30.5t-78 35q-114 110 -264 110q-106 0 -158.5 -42.5t-52.5 -102.5q0 -58 37 -101t96 -70.5t130 -53t142 -58.5t130 -76t96 -115.5t37 -168.5 q0 -141 -119 -240q92 -99 92 -231q0 -150 -114 -251.5t-322 -101.5q-276 0 -422 181q-25 29 -25 67q0 43 31 74t74 31q45 0 80 -35q111 -111 262 -111q106 0 158.5 43t52.5 103q0 58 -37 101t-96 70.5t-130 53t-142 58.5t-130 76t-96 115.5t-37 168.5zM264 584 q0 -50 33 -91.5t89 -70.5t111.5 -50t117.5 -42.5t90 -36.5q45 52 45 119q0 50 -33.5 91.5t-89 70t-111 49.5t-117.5 42.5t-90 36.5q-45 -52 -45 -118z" />
<glyph unicode="&#xa8;" horiz-adv-x="673" d="M49 1171q0 109 103 109q102 0 102 -109q0 -104 -102 -104q-103 0 -103 104zM420 1171q0 109 102 109q103 0 103 -109q0 -104 -103 -104q-102 0 -102 104z" />
<glyph unicode="&#xa9;" horiz-adv-x="1619" d="M98 688q0 358 185 538.5t528 180.5q347 0 529 -179.5t182 -539.5q0 -358 -182 -537.5t-529 -179.5q-343 0 -528 180t-185 537zM254 688q0 -292 140.5 -432.5t416.5 -140.5q278 0 416.5 140t138.5 433q0 294 -138.5 435t-416.5 141q-557 0 -557 -576zM481 690 q0 190 88.5 282.5t245.5 92.5q97 0 164.5 -37.5t95.5 -85.5q8 -13 8 -33q0 -25 -17 -42t-42 -17q-27 0 -45 20q-34 37 -70 54.5t-94 17.5q-96 0 -147.5 -55t-51.5 -197q0 -139 52 -194.5t147 -55.5q59 0 99.5 15t78.5 49q16 16 41 16t42.5 -17t17.5 -42q0 -17 -11 -33 q-32 -47 -105.5 -79t-162.5 -32q-157 0 -245.5 91.5t-88.5 281.5z" />
<glyph unicode="&#xaa;" horiz-adv-x="729" d="M63 565q0 31 21.5 52.5t52.5 21.5h453q31 0 52.5 -21.5t21.5 -52.5t-21.5 -52t-52.5 -21h-453q-31 0 -52.5 21t-21.5 52zM82 948q0 93 63 145t158 52h189v24q0 47 -32.5 74t-92.5 27q-70 0 -140 -56q-18 -12 -39 -12q-28 0 -47.5 20t-19.5 48q0 26 18 47q77 90 228 90 q130 0 203 -60.5t73 -170.5v-353q0 -31 -22.5 -53t-53.5 -22q-30 0 -52.5 22.5t-22.5 52.5q-56 -84 -179 -84q-103 0 -167 57.5t-64 151.5zM238 948q0 -82 114 -82q58 0 99 33.5t41 89.5v37h-158q-46 0 -71 -20.5t-25 -57.5z" />
<glyph unicode="&#xab;" horiz-adv-x="1067" d="M94 434q0 29 23 55l315 363q28 31 62 31q32 0 55.5 -24t23.5 -56q0 -31 -20 -51l-289 -318l289 -317q20 -20 20 -51q0 -32 -23.5 -56t-55.5 -24q-35 0 -62 30l-315 363q-23 26 -23 55zM494 434q0 30 22 55l315 363q28 31 62 31q32 0 56 -24t24 -56q0 -30 -21 -51 l-288 -318l288 -317q21 -21 21 -51q0 -32 -24 -56t-56 -24q-35 0 -62 30l-315 363q-22 25 -22 55z" />
<glyph unicode="&#xac;" horiz-adv-x="1163" d="M68 578q0 40 29 69t69 29h827q41 0 72 -31t31 -72v-487q0 -41 -31 -71.5t-72 -30.5t-71.5 30.5t-30.5 71.5v393h-725q-40 0 -69 29.5t-29 69.5z" />
<glyph unicode="&#xad;" horiz-adv-x="774" d="M88 516q0 38 28 66t66 28h410q38 0 66 -28t28 -66t-28 -66t-66 -28h-410q-38 0 -66 28t-28 66z" />
<glyph unicode="&#xae;" horiz-adv-x="802" d="M82 1096q0 156 79 233.5t222 77.5q148 0 226.5 -77t78.5 -234t-79 -235.5t-226 -78.5q-143 0 -222 79t-79 235zM152 1096q0 -254 233 -254t233 254t-233 254q-117 0 -175 -61t-58 -193zM266 965v264q0 10 8 18t19 8h119q45 0 73.5 -30t28.5 -70q0 -45 -23.5 -72.5 t-58.5 -27.5l66 -74q6 -8 6 -18q0 -12 -8.5 -20.5t-20.5 -8.5q-15 0 -24 12l-80 109h-43v-90q0 -12 -9.5 -21.5t-21.5 -9.5t-21.5 9.5t-9.5 21.5zM328 1108h75q50 0 50 47q0 21 -13 34t-37 13h-75v-94z" />
<glyph unicode="&#xaf;" horiz-adv-x="813" d="M152 1151q0 32 22.5 55t54.5 23h355q32 0 55 -23t23 -55t-23 -55t-55 -23h-355q-32 0 -54.5 23t-22.5 55z" />
<glyph unicode="&#xb0;" horiz-adv-x="759" d="M100 1126q0 117 80 199t199 82q121 0 200.5 -82t79.5 -199t-79.5 -197.5t-200.5 -80.5q-119 0 -199 81t-80 197zM233 1126q0 -60 41 -102.5t105 -42.5q66 0 106.5 42.5t40.5 102.5q0 61 -41 104.5t-106 43.5q-64 0 -105 -43.5t-41 -104.5z" />
<glyph unicode="&#xb1;" horiz-adv-x="929" d="M0 94q0 38 28 66t66 28h742q38 0 66 -28t28 -66t-28 -66t-66 -28h-742q-38 0 -66 28t-28 66zM0 664q0 38 28 66t66 28h273v248q0 40 29 69t69 29t69 -29t29 -69v-248h273q38 0 66 -28t28 -66t-28 -66.5t-66 -28.5h-273v-245q0 -40 -29 -69.5t-69 -29.5t-69 29.5t-29 69.5 v245h-273q-38 0 -66 28.5t-28 66.5z" />
<glyph unicode="&#xb2;" horiz-adv-x="591" d="M55 944q0 60 24 107t59.5 74t77.5 50.5t77.5 39.5t59.5 37.5t24 47.5q0 27 -22.5 44.5t-65.5 17.5q-47 0 -105 -53q-22 -19 -45 -19q-28 0 -47.5 20t-19.5 48q0 25 20 51q27 34 82 60t115 26q109 0 174 -54.5t65 -140.5q0 -55 -32 -98t-77 -68t-90.5 -45.5t-77.5 -42 t-32 -45.5h252q28 0 47 -18.5t19 -46.5t-19 -47t-47 -19h-342q-31 0 -52.5 21.5t-21.5 52.5z" />
<glyph unicode="&#xb3;" horiz-adv-x="565" d="M39 997q0 28 18.5 47t44.5 19q27 0 48 -21q29 -29 56.5 -42t65.5 -13q49 0 73 22.5t24 57.5q0 80 -78 80h-45q-25 0 -42.5 17t-17.5 42q0 26 25 54l88 92h-172q-28 0 -47 18.5t-19 46.5t19 47t47 19h289q28 0 46.5 -19t18.5 -47q0 -26 -20 -49l-105 -108q41 0 73.5 -19.5 t50.5 -50t27 -62.5t9 -61q0 -96 -61.5 -152.5t-182.5 -56.5q-78 0 -136 31.5t-81 62.5q-16 21 -16 45z" />
<glyph unicode="&#xb4;" horiz-adv-x="786" d="M220 1101.5q-2 25.5 16 43.5l174 221q22 28 56.5 26.5t65.5 -32.5q33 -31 34 -66t-25 -57l-201 -184q-48 -43 -94 0q-24 23 -26 48.5z" />
<glyph unicode="&#xb5;" horiz-adv-x="993" d="M92 -309v1145q0 46 32.5 78t78.5 32t78 -32t32 -78v-478q0 -83 40.5 -133.5t144.5 -50.5q182 0 182 184v478q0 46 32.5 78t78.5 32t78 -32t32 -78v-478q0 -82 -17.5 -146t-60 -120.5t-125 -87.5t-200.5 -31q-124 0 -185 64v-346q0 -46 -32 -78.5t-78 -32.5t-78.5 32.5 t-32.5 78.5z" />
<glyph unicode="&#xb6;" horiz-adv-x="1130" d="M68 989q0 161 113 275t274 114h538q43 0 74 -30.5t31 -73.5t-31 -74t-74 -31h-26v-557q0 -148 -28 -263t-79 -193t-126.5 -128.5t-165.5 -73t-201 -22.5q-57 0 -134 13.5t-108 31.5q-24 12 -38.5 36.5t-14.5 54.5q0 41 30.5 71.5t71.5 30.5q22 0 71 -18.5t83 -18.5 q92 0 133 76.5t41 224.5v168h-47q-161 0 -274 113t-113 274zM549 137q99 50 141.5 144t42.5 272v616h-76v-706q0 -210 -108 -326z" />
<glyph unicode="&#xb7;" horiz-adv-x="460" d="M96 614q0 68 35 103t100 35q134 0 134 -138q0 -133 -134 -133q-135 0 -135 133z" />
<glyph unicode="&#xb8;" horiz-adv-x="669" d="M129 -395q0 22 15.5 37.5t37.5 15.5q13 0 25 -6q60 -29 117 -29q49 0 74.5 20.5t25.5 71.5q0 86 -111 86q-18 0 -47 -6t-43 -6q-43 0 -43 45v166h103l-11 -109q27 7 72 7q87 0 141 -48t54 -135q0 -198 -224 -198q-40 0 -86 12t-77 33q-23 15 -23 43z" />
<glyph unicode="&#xb9;" horiz-adv-x="466" d="M49 1309q0 40 35 61l170 107q20 12 41 12q31 0 53.5 -22.5t22.5 -53.5v-473q0 -31 -22.5 -53.5t-53.5 -22.5t-53.5 22.5t-22.5 53.5v346l-65 -41q-16 -8 -33 -8q-29 0 -50.5 21.5t-21.5 50.5z" />
<glyph unicode="&#xba;" horiz-adv-x="741" d="M63 565q0 31 21.5 52.5t52.5 21.5h453q31 0 52.5 -21.5t21.5 -52.5t-21.5 -52t-52.5 -21h-453q-31 0 -52.5 21t-21.5 52zM66 1073q0 165 80 249.5t223 84.5q144 0 224.5 -84.5t80.5 -249.5t-80.5 -249.5t-224.5 -84.5q-143 0 -223 84.5t-80 249.5zM217 1073 q0 -205 152 -205q153 0 153 205t-153 205q-152 0 -152 -205z" />
<glyph unicode="&#xbb;" horiz-adv-x="1067" d="M94 66q0 30 21 51l288 317l-288 318q-21 21 -21 51q0 32 24 56t56 24q34 0 62 -31l315 -363q22 -25 22 -55t-22 -55l-315 -363q-27 -30 -62 -30q-32 0 -56 24t-24 56zM494 66q0 31 20 51l289 317l-289 318q-20 20 -20 51q0 32 23.5 56t55.5 24q34 0 62 -31l315 -363 q23 -26 23 -55t-23 -55l-315 -363q-27 -30 -62 -30q-32 0 -55.5 24t-23.5 56z" />
<glyph unicode="&#xbc;" horiz-adv-x="1048" d="M41 1221q0 40 35 61l170 107q20 12 41 12q31 0 53 -22.5t22 -53.5v-473q0 -31 -22 -53.5t-53 -22.5t-53.5 22.5t-22.5 53.5v346l-66 -41q-16 -8 -32 -8q-29 0 -50.5 21.5t-21.5 50.5zM168 70q0 15 6 30l481 1239q8 20 28.5 38t51.5 18q36 0 61 -26t25 -60q0 -16 -6 -31 l-481 -1239q-7 -21 -27.5 -38t-52.5 -17q-35 0 -60.5 25.5t-25.5 60.5zM492 174q0 22 14 41l264 358q28 35 64 35q31 0 53 -22.5t22 -53.5v-290h29q28 0 48 -20t20 -48t-20 -48t-48 -20h-29v-47q0 -31 -22 -53t-53 -22t-53.5 22t-22.5 53v47h-199q-28 0 -47.5 20t-19.5 48z M659 242h99v139z" />
<glyph unicode="&#xbd;" horiz-adv-x="1122" d="M51 1221q0 40 35 61l170 107q20 12 41 12q31 0 53.5 -22.5t22.5 -53.5v-473q0 -31 -22.5 -53.5t-53.5 -22.5t-53.5 22.5t-22.5 53.5v346l-65 -41q-16 -8 -33 -8q-29 0 -50.5 21.5t-21.5 50.5zM178 70q0 15 6 30l482 1239q8 21 28 38.5t51 17.5q36 0 61 -26t25 -60 q0 -16 -6 -31l-481 -1239q-7 -21 -27.5 -38t-52.5 -17q-35 0 -60.5 25.5t-25.5 60.5zM588 74q0 60 24 107t59.5 74t77 50.5t77 39.5t59.5 37.5t24 47.5q0 27 -22.5 44.5t-65.5 17.5q-22 0 -43.5 -10t-31.5 -18.5t-29 -25.5q-21 -18 -45 -18q-28 0 -48 19.5t-20 47.5 q0 25 21 52q27 34 81.5 60t114.5 26q109 0 174.5 -54.5t65.5 -140.5q0 -55 -32 -98t-77.5 -68t-90.5 -45.5t-77 -42t-32 -45.5h252q28 0 46.5 -18.5t18.5 -46.5t-18.5 -47t-46.5 -19h-342q-31 0 -52.5 21.5t-21.5 52.5z" />
<glyph unicode="&#xbe;" horiz-adv-x="1142" d="M39 909q0 28 18.5 47t44.5 19q27 0 48 -21q29 -29 56.5 -42t65.5 -13q49 0 73 22.5t24 57.5q0 80 -78 80h-45q-25 0 -42.5 17t-17.5 42t25 53l88 93h-172q-28 0 -47 18.5t-19 46.5t19 47t47 19h289q28 0 46.5 -19t18.5 -47q0 -26 -20 -49l-105 -109q54 0 92.5 -34 t53 -75.5t14.5 -82.5q0 -96 -61.5 -152.5t-182.5 -56.5q-78 0 -136 31.5t-81 62.5q-16 21 -16 45zM283 70q0 15 6 30l481 1239q8 20 28.5 38t51.5 18q36 0 61 -26t25 -60q0 -16 -6 -31l-481 -1239q-7 -21 -27.5 -38t-52.5 -17q-35 0 -60.5 25.5t-25.5 60.5zM606 174 q0 21 15 41l264 358q28 35 63 35q31 0 53.5 -22.5t22.5 -53.5v-290h29q28 0 47.5 -20t19.5 -48t-19.5 -48t-47.5 -20h-29v-47q0 -31 -22.5 -53t-53.5 -22t-53.5 22t-22.5 53v47h-198q-28 0 -48 20t-20 48zM774 242h98v139z" />
<glyph unicode="&#xbf;" horiz-adv-x="927" d="M41 -106q0 78 29 141.5t72.5 102t94 72.5t94 56t72.5 49.5t29 55.5q0 20 -20 49q-19 28 -19 61q0 49 34.5 80t76.5 31q47 0 80 -33q75 -72 75 -174q0 -71 -41 -128t-99.5 -95t-116.5 -74.5t-99 -85.5t-41 -108q0 -75 54.5 -116.5t152.5 -41.5q89 0 141 44t52 128 q0 46 33 79t79 33t79.5 -33t33.5 -79q0 -175 -111 -274t-307 -99q-203 0 -315.5 94t-112.5 265zM377 825q0 133 133 133q135 0 135 -133q0 -137 -135 -137q-133 0 -133 137z" />
<glyph unicode="&#xc0;" horiz-adv-x="1277" d="M39 100q0 24 8 43l483 1178q12 28 39.5 51t69.5 23t69.5 -23t39.5 -51l483 -1178q8 -19 8 -43q0 -47 -35 -81.5t-82 -34.5q-38 0 -67 21.5t-43 55.5l-125 297h-496l-125 -297q-14 -34 -43 -55.5t-67 -21.5q-47 0 -82 34.5t-35 81.5zM469 1720q1 35 33 66q31 31 66 32.5 t57 -26.5l174 -221q18 -18 15.5 -43.5t-26.5 -48.5q-46 -43 -94 0l-200 184q-26 22 -25 57zM471 575h336l-168 431z" />
<glyph unicode="&#xc1;" horiz-adv-x="1277" d="M39 100q0 24 8 43l483 1178q12 28 39.5 51t69.5 23t69.5 -23t39.5 -51l483 -1178q8 -19 8 -43q0 -47 -35 -81.5t-82 -34.5q-38 0 -67 21.5t-43 55.5l-125 297h-496l-125 -297q-14 -34 -43 -55.5t-67 -21.5q-47 0 -82 34.5t-35 81.5zM465.5 1527.5q-2.5 25.5 15.5 43.5 l174 221q22 28 57 26.5t66 -32.5q32 -31 33 -66t-25 -57l-200 -184q-48 -43 -94 0q-24 23 -26.5 48.5zM471 575h336l-168 431z" />
<glyph unicode="&#xc2;" horiz-adv-x="1277" d="M39 100q0 24 8 43l483 1178q12 28 39.5 51t69.5 23t69.5 -23t39.5 -51l483 -1178q8 -19 8 -43q0 -47 -35 -81.5t-82 -34.5q-38 0 -67 21.5t-43 55.5l-125 297h-496l-125 -297q-14 -34 -43 -55.5t-67 -21.5q-47 0 -82 34.5t-35 81.5zM365 1544q0 43 36 68l191 127 q20 14 47 14t47 -14l191 -127q36 -25 36 -68q0 -34 -22.5 -57t-56.5 -23q-29 0 -48 15l-147 102l-147 -102q-19 -15 -48 -15q-34 0 -56.5 23t-22.5 57zM471 575h336l-168 431z" />
<glyph unicode="&#xc3;" horiz-adv-x="1277" d="M39 100q0 24 8 43l483 1178q12 28 39.5 51t69.5 23t69.5 -23t39.5 -51l483 -1178q8 -19 8 -43q0 -47 -35 -81.5t-82 -34.5q-38 0 -67 21.5t-43 55.5l-125 297h-496l-125 -297q-14 -34 -43 -55.5t-67 -21.5q-47 0 -82 34.5t-35 81.5zM315 1575q0 19 7 33q21 50 68.5 78 t107.5 28q62 0 146.5 -34.5t117.5 -34.5q31 0 53 32q24 35 68 35q34 0 57 -23t23 -57q0 -19 -7 -33q-21 -50 -68.5 -78t-107.5 -28q-63 0 -149.5 35t-114.5 35q-30 0 -53 -33q-25 -35 -68 -35q-34 0 -57 23t-23 57zM471 575h336l-168 431z" />
<glyph unicode="&#xc4;" horiz-adv-x="1277" d="M39 100q0 24 8 43l483 1178q12 28 39.5 51t69.5 23t69.5 -23t39.5 -51l483 -1178q8 -19 8 -43q0 -47 -35 -81.5t-82 -34.5q-38 0 -67 21.5t-43 55.5l-125 297h-496l-125 -297q-14 -34 -43 -55.5t-67 -21.5q-47 0 -82 34.5t-35 81.5zM352 1620q0 109 103 109 q102 0 102 -109q0 -104 -102 -104q-103 0 -103 104zM471 575h336l-168 431zM723 1620q0 109 102 109q103 0 103 -109q0 -104 -103 -104q-102 0 -102 104z" />
<glyph unicode="&#xc5;" horiz-adv-x="1277" d="M39 100q0 24 8 43l483 1178q12 28 39.5 51t69.5 23t69.5 -23t39.5 -51l483 -1178q8 -19 8 -43q0 -47 -35 -81.5t-82 -34.5q-38 0 -67 21.5t-43 55.5l-125 297h-496l-125 -297q-14 -34 -43 -55.5t-67 -21.5q-47 0 -82 34.5t-35 81.5zM422 1642q0 96 55 149.5t162 53.5 t162 -53.5t55 -149.5t-55 -149t-162 -53t-162 53t-55 149zM471 575h336l-168 431zM537 1642q0 -50 23.5 -75t78.5 -25t78.5 25t23.5 75t-23.5 75.5t-78.5 25.5t-78.5 -25.5t-23.5 -75.5z" />
<glyph unicode="&#xc6;" horiz-adv-x="1769" d="M47 100q0 32 21 66l772 1159q37 53 94 53h645q44 0 75.5 -31t31.5 -75t-31.5 -75.5t-75.5 -31.5h-520v-366h387q43 0 73.5 -31t30.5 -74t-30.5 -73.5t-73.5 -30.5h-387v-377h543q44 0 75 -31.5t31 -75.5t-31 -75t-75 -31h-662q-50 0 -84.5 33t-34.5 82v264h-344 l-215 -340q-36 -55 -98 -55q-47 0 -82 34.5t-35 81.5zM606 596h215v340z" />
<glyph unicode="&#xc7;" horiz-adv-x="1310" d="M70 688q0 359 165 539t476 180q176 0 300.5 -60.5t192.5 -160.5q23 -36 23 -68q0 -44 -32.5 -76t-78.5 -32t-84 41q-67 73 -140.5 108t-180.5 35q-203 0 -299.5 -125.5t-96.5 -380.5q0 -266 95 -385t301 -119q113 0 185 29.5t146 105.5q46 46 88 46q46 0 78.5 -32.5 t32.5 -78.5q0 -34 -20 -61q-181 -222 -541 -222l-6 -80q26 7 71 7q87 0 141 -48t54 -135q0 -198 -223 -198q-40 0 -86.5 12t-77.5 33q-23 15 -23 43q0 22 16 37.5t38 15.5q12 0 24 -6q60 -29 117 -29q49 0 74.5 20.5t25.5 71.5q0 86 -110 86q-18 0 -47 -6t-43 -6 q-43 0 -43 45v146q-512 67 -512 708z" />
<glyph unicode="&#xc8;" horiz-adv-x="1071" d="M123 119v1141q0 49 34.5 83.5t84.5 34.5h639q44 0 75 -31t31 -75t-31 -75.5t-75 -31.5h-521v-366h388q43 0 73.5 -31t30.5 -74t-30.5 -73.5t-73.5 -30.5h-388v-377h543q44 0 75.5 -31.5t31.5 -75.5t-31.5 -75t-75.5 -31h-661q-50 0 -84.5 35t-34.5 84zM389 1720 q1 35 33 66q31 31 66 32.5t57 -26.5l174 -221q18 -18 16 -43.5t-26 -48.5q-46 -43 -95 0l-200 184q-26 22 -25 57z" />
<glyph unicode="&#xc9;" horiz-adv-x="1071" d="M123 119v1141q0 49 34.5 83.5t84.5 34.5h639q44 0 75 -31t31 -75t-31 -75.5t-75 -31.5h-521v-366h388q43 0 73.5 -31t30.5 -74t-30.5 -73.5t-73.5 -30.5h-388v-377h543q44 0 75.5 -31.5t31.5 -75.5t-31.5 -75t-75.5 -31h-661q-50 0 -84.5 35t-34.5 84zM430.5 1527.5 q-2.5 25.5 15.5 43.5l175 221q22 28 56.5 26.5t65.5 -32.5q33 -31 34 -66t-25 -57l-201 -184q-48 -43 -94 0q-24 23 -26.5 48.5z" />
<glyph unicode="&#xca;" horiz-adv-x="1071" d="M123 119v1141q0 49 34.5 83.5t84.5 34.5h639q44 0 75 -31t31 -75t-31 -75.5t-75 -31.5h-521v-366h388q43 0 73.5 -31t30.5 -74t-30.5 -73.5t-73.5 -30.5h-388v-377h543q44 0 75.5 -31.5t31.5 -75.5t-31.5 -75t-75.5 -31h-661q-50 0 -84.5 35t-34.5 84zM297 1544 q0 42 37 68l190 127q20 14 47 14t47 -14l191 -127q37 -26 37 -68q0 -34 -23 -57t-57 -23q-28 0 -47 15l-148 102l-147 -102q-19 -15 -47 -15q-34 0 -57 23t-23 57z" />
<glyph unicode="&#xcb;" horiz-adv-x="1071" d="M123 119v1141q0 49 34.5 83.5t84.5 34.5h639q44 0 75 -31t31 -75t-31 -75.5t-75 -31.5h-521v-366h388q43 0 73.5 -31t30.5 -74t-30.5 -73.5t-73.5 -30.5h-388v-377h543q44 0 75.5 -31.5t31.5 -75.5t-31.5 -75t-75.5 -31h-661q-50 0 -84.5 35t-34.5 84zM281 1620 q0 109 102 109t102 -109q0 -104 -102 -104t-102 104zM651 1620q0 109 103 109q102 0 102 -109q0 -104 -102 -104q-103 0 -103 104z" />
<glyph unicode="&#xcc;" horiz-adv-x="483" d="M71 1720q1 35 33 66q31 31 66 32.5t57 -26.5l174 -221q18 -18 16 -43.5t-26 -48.5q-46 -43 -94 0l-201 184q-26 22 -25 57zM123 102v1174q0 50 34.5 84.5t84.5 34.5q49 0 83.5 -34.5t34.5 -84.5v-1174q0 -50 -34 -84t-84 -34t-84.5 34.5t-34.5 83.5z" />
<glyph unicode="&#xcd;" horiz-adv-x="483" d="M105 1527.5q-2 25.5 16 43.5l174 221q22 28 57 26.5t66 -32.5q32 -31 33 -66t-25 -57l-201 -184q-48 -43 -94 0q-24 23 -26 48.5zM123 102v1174q0 50 34.5 84.5t84.5 34.5q49 0 83.5 -34.5t34.5 -84.5v-1174q0 -50 -34 -84t-84 -34t-84.5 34.5t-34.5 83.5z" />
<glyph unicode="&#xce;" horiz-adv-x="483" d="M-31 1544q0 42 37 68l191 127q20 14 47 14t47 -14l190 -127q37 -26 37 -68q0 -34 -23 -57t-57 -23q-28 0 -47 15l-147 102l-148 -102q-19 -15 -47 -15q-34 0 -57 23t-23 57zM123 102v1174q0 50 34.5 84.5t84.5 34.5q49 0 83.5 -34.5t34.5 -84.5v-1174q0 -50 -34 -84 t-84 -34t-84.5 34.5t-34.5 83.5z" />
<glyph unicode="&#xcf;" horiz-adv-x="483" d="M-41 1620q0 109 102 109q103 0 103 -109q0 -104 -103 -104q-102 0 -102 104zM123 102v1174q0 50 34.5 84.5t84.5 34.5q49 0 83.5 -34.5t34.5 -84.5v-1174q0 -50 -34 -84t-84 -34t-84.5 34.5t-34.5 83.5zM330 1620q0 109 102 109q103 0 103 -109q0 -104 -103 -104 q-102 0 -102 104z" />
<glyph unicode="&#xd0;" horiz-adv-x="1302" d="M35 713q0 38 28 66t66 28h45v453q0 49 34.5 83.5t84.5 34.5h276q157 0 276.5 -37t208.5 -117.5t135 -215t46 -320.5t-46 -320.5t-135 -214t-208.5 -116.5t-276.5 -37h-276q-49 0 -84 35t-35 84v499h-45q-38 0 -66 28.5t-28 66.5zM412 213h157q102 0 177 24.5t131 79 t84 147.5t28 224q0 256 -106.5 366.5t-313.5 110.5h-157v-358h288q38 0 66.5 -28t28.5 -66t-28.5 -66.5t-66.5 -28.5h-288v-405z" />
<glyph unicode="&#xd1;" horiz-adv-x="1275" d="M113 100v1178q0 47 34.5 82t81.5 35q63 0 95 -49l606 -879v811q0 47 35 82t82 35t81.5 -35t34.5 -82v-1178q0 -47 -34.5 -81.5t-81.5 -34.5q-64 0 -97 51l-604 872v-807q0 -47 -35 -81.5t-82 -34.5t-81.5 34.5t-34.5 81.5zM313 1575q0 21 6 33q21 50 69 78t108 28 q62 0 146.5 -34.5t117.5 -34.5q31 0 53 32q25 35 68 35q34 0 57 -23t23 -57q0 -19 -7 -33q-21 -50 -68.5 -78t-107.5 -28q-63 0 -149.5 35t-114.5 35q-30 0 -53 -33q-25 -35 -68 -35q-34 0 -57 23t-23 57z" />
<glyph unicode="&#xd2;" d="M70 688q0 -355 167.5 -536t481.5 -181t481.5 181t167.5 536q0 359 -167 539t-482 180t-482 -180t-167 -539zM315 688q0 506 404 506q203 0 303 -125.5t100 -380.5q0 -504 -403 -504q-404 0 -404 504zM548 1720q1 35 34 66q31 31 66 32.5t57 -26.5l174 -221 q18 -18 15.5 -43.5t-26.5 -48.5q-46 -43 -94 0l-201 184q-26 22 -25 57z" />
<glyph unicode="&#xd3;" d="M70 688q0 -355 167.5 -536t481.5 -181t481.5 181t167.5 536q0 359 -167 539t-482 180t-482 -180t-167 -539zM315 688q0 506 404 506q203 0 303 -125.5t100 -380.5q0 -504 -403 -504q-404 0 -404 504zM580 1527.5q-2 25.5 16 43.5l174 221q22 28 57 26.5t66 -32.5 q32 -31 33 -66t-25 -57l-201 -184q-48 -43 -94 0q-24 23 -26 48.5z" />
<glyph unicode="&#xd4;" d="M70 688q0 -355 167.5 -536t481.5 -181t481.5 181t167.5 536q0 359 -167 539t-482 180t-482 -180t-167 -539zM315 688q0 506 404 506q203 0 303 -125.5t100 -380.5q0 -504 -403 -504q-404 0 -404 504zM442 1544q0 42 37 68l191 127q20 14 47 14t47 -14l190 -127 q37 -26 37 -68q0 -34 -23 -57t-57 -23q-28 0 -47 15l-147 102l-148 -102q-19 -15 -47 -15q-34 0 -57 23t-23 57z" />
<glyph unicode="&#xd5;" d="M70 688q0 -355 167.5 -536t481.5 -181t481.5 181t167.5 536q0 359 -167 539t-482 180t-482 -180t-167 -539zM315 688q0 506 404 506q203 0 303 -125.5t100 -380.5q0 -504 -403 -504q-404 0 -404 504zM395 1575q0 21 6 33q21 50 69 78t108 28q62 0 146.5 -34.5 t117.5 -34.5q31 0 53 32q25 35 68 35q34 0 56.5 -23t22.5 -57q0 -21 -6 -33q-21 -50 -68.5 -78t-107.5 -28q-63 0 -149.5 35t-114.5 35q-30 0 -53 -33q-25 -35 -68 -35q-34 0 -57 23t-23 57z" />
<glyph unicode="&#xd6;" d="M70 688q0 -355 167.5 -536t481.5 -181t481.5 181t167.5 536q0 359 -167 539t-482 180t-482 -180t-167 -539zM315 688q0 506 404 506q203 0 303 -125.5t100 -380.5q0 -504 -403 -504q-404 0 -404 504zM430 1620q0 109 102 109q103 0 103 -109q0 -104 -103 -104 q-102 0 -102 104zM801 1620q0 109 102 109q103 0 103 -109q0 -104 -103 -104q-102 0 -102 104z" />
<glyph unicode="&#xd7;" horiz-adv-x="761" d="M0 182q0 44 33 74l207 193l-207 192q-33 30 -33 74q0 41 29.5 70.5t70.5 29.5t70 -29l211 -200l211 200q29 29 70 29t70.5 -29.5t29.5 -70.5q0 -44 -33 -74l-207 -192l207 -193q33 -30 33 -74q0 -41 -29.5 -70.5t-70.5 -29.5t-70 29l-211 200l-211 -200q-29 -29 -70 -29 t-70.5 29.5t-29.5 70.5z" />
<glyph unicode="&#xd8;" d="M70 688q0 359 167 539t482 180q237 0 387 -100l70 86q25 32 69 32q37 0 63.5 -26.5t26.5 -63.5q0 -34 -20 -57l-78 -96q131 -178 131 -494q0 -355 -167.5 -536t-481.5 -181q-235 0 -385 99l-74 -90q-26 -33 -70 -33q-37 0 -63.5 26.5t-26.5 63.5q0 33 21 57l82 101 q-133 177 -133 493zM315 688q0 -177 50 -295l596 733q-95 68 -242 68q-404 0 -404 -506zM479 250q89 -66 240 -66q403 0 403 504q0 177 -49 293z" />
<glyph unicode="&#xd9;" horiz-adv-x="1267" d="M123 451v825q0 50 34.5 84.5t84.5 34.5q49 0 83.5 -34.5t34.5 -84.5v-825q0 -52 12 -96t40.5 -85.5t86.5 -65.5t140 -24t140 24t86.5 65.5t40.5 85.5t12 96v825q0 50 34.5 84.5t83.5 34.5q50 0 84.5 -34.5t34.5 -84.5v-825q0 -75 -13.5 -140t-49.5 -129t-92 -109.5 t-148.5 -73.5t-212.5 -28t-212.5 28t-148.5 73.5t-92 109.5t-49.5 129t-13.5 140zM446 1720q1 35 33 66q31 31 66 32.5t57 -26.5l174 -221q18 -18 16 -43.5t-26 -48.5q-46 -43 -94 0l-201 184q-26 22 -25 57z" />
<glyph unicode="&#xda;" horiz-adv-x="1267" d="M123 451v825q0 50 34.5 84.5t84.5 34.5q49 0 83.5 -34.5t34.5 -84.5v-825q0 -52 12 -96t40.5 -85.5t86.5 -65.5t140 -24t140 24t86.5 65.5t40.5 85.5t12 96v825q0 50 34.5 84.5t83.5 34.5q50 0 84.5 -34.5t34.5 -84.5v-825q0 -75 -13.5 -140t-49.5 -129t-92 -109.5 t-148.5 -73.5t-212.5 -28t-212.5 28t-148.5 73.5t-92 109.5t-49.5 129t-13.5 140zM529 1527.5q-2 25.5 16 43.5l174 221q22 28 57 26.5t66 -32.5q32 -31 33 -66t-25 -57l-201 -184q-48 -43 -94 0q-24 23 -26 48.5z" />
<glyph unicode="&#xdb;" horiz-adv-x="1267" d="M123 451v825q0 50 34.5 84.5t84.5 34.5q49 0 83.5 -34.5t34.5 -84.5v-825q0 -52 12 -96t40.5 -85.5t86.5 -65.5t140 -24t140 24t86.5 65.5t40.5 85.5t12 96v825q0 50 34.5 84.5t83.5 34.5q50 0 84.5 -34.5t34.5 -84.5v-825q0 -75 -13.5 -140t-49.5 -129t-92 -109.5 t-148.5 -73.5t-212.5 -28t-212.5 28t-148.5 73.5t-92 109.5t-49.5 129t-13.5 140zM373 1544q0 42 37 68l190 127q20 14 47 14t47 -14l191 -127q37 -26 37 -68q0 -34 -23 -57t-57 -23q-28 0 -47 15l-148 102l-147 -102q-19 -15 -47 -15q-34 0 -57 23t-23 57z" />
<glyph unicode="&#xdc;" horiz-adv-x="1267" d="M123 451v825q0 50 34.5 84.5t84.5 34.5q49 0 83.5 -34.5t34.5 -84.5v-825q0 -52 12 -96t40.5 -85.5t86.5 -65.5t140 -24t140 24t86.5 65.5t40.5 85.5t12 96v825q0 50 34.5 84.5t83.5 34.5q50 0 84.5 -34.5t34.5 -84.5v-825q0 -75 -13.5 -140t-49.5 -129t-92 -109.5 t-148.5 -73.5t-212.5 -28t-212.5 28t-148.5 73.5t-92 109.5t-49.5 129t-13.5 140zM354 1620q0 109 103 109q102 0 102 -109q0 -104 -102 -104q-103 0 -103 104zM725 1620q0 109 102 109q103 0 103 -109q0 -104 -103 -104q-102 0 -102 104z" />
<glyph unicode="&#xdd;" horiz-adv-x="1134" d="M39 1276q0 50 34.5 84.5t84.5 34.5q63 0 100 -56l309 -485l310 485q34 56 100 56q49 0 84 -34.5t35 -84.5q0 -39 -19 -64l-391 -583v-527q0 -49 -34.5 -83.5t-84.5 -34.5q-49 0 -83.5 34t-34.5 84v527l-392 583q-18 24 -18 64zM465.5 1527.5q-2.5 25.5 15.5 43.5l174 221 q22 28 57 26.5t66 -32.5q32 -31 33 -66t-25 -57l-200 -184q-48 -43 -94 0q-24 23 -26.5 48.5z" />
<glyph unicode="&#xde;" horiz-adv-x="1130" d="M123 102v1174q0 50 34.5 84.5t84.5 34.5q49 0 83.5 -34.5t34.5 -84.5v-139h273q190 0 310 -107t120 -313q0 -205 -119.5 -313.5t-310.5 -108.5h-273v-193q0 -50 -34 -84t-84 -34t-84.5 34.5t-34.5 83.5zM360 508h254q96 0 149.5 55t53.5 154q0 100 -54 153.5t-149 53.5 h-254v-416z" />
<glyph unicode="&#xdf;" horiz-adv-x="1204" d="M102 90v911q0 171 115.5 286.5t308.5 115.5q177 0 289.5 -95.5t112.5 -226.5q0 -67 -29 -119t-71 -84t-83.5 -59.5t-70.5 -60t-29 -70.5q0 -30 28 -53t72 -38.5t98 -31t108 -38.5t98 -54t72 -83.5t28 -121.5q0 -140 -105 -215.5t-270 -75.5q-121 0 -219 44.5t-143 99.5 q-25 31 -25 63q0 40 29 69.5t69 29.5q32 0 64 -25q103 -84 225 -84q152 0 152 82q0 35 -27.5 60.5t-72 42.5t-98 33.5t-107 39t-98 53t-72 81.5t-27.5 118q0 48 21 91.5t52.5 73t68 59.5t68 54.5t52.5 55.5t21 63q0 46 -42.5 87.5t-138.5 41.5q-87 0 -144.5 -53t-57.5 -139 v-928q0 -45 -32.5 -75.5t-78.5 -30.5q-49 0 -80 30t-31 76z" />
<glyph unicode="&#xe0;" horiz-adv-x="966" d="M55 283q0 136 95.5 212t236.5 76h268v37q0 70 -49 112t-137 42q-60 0 -108 -21t-97 -57q-29 -20 -61 -20q-40 0 -68.5 28t-28.5 68q0 37 27 67q119 131 336 131q191 0 298 -90t107 -252v-524q0 -44 -32 -76t-76 -32t-76.5 32t-32.5 76q-74 -119 -268 -119q-150 0 -242 86 t-92 224zM276 283q0 -60 42.5 -92.5t127.5 -32.5q86 0 147.5 50.5t61.5 133.5v57h-239q-67 0 -103.5 -30t-36.5 -86zM290 1294q1 35 34 66q31 31 65.5 32.5t56.5 -26.5l175 -221q18 -18 15.5 -43.5t-26.5 -48.5q-46 -43 -94 0l-201 184q-26 22 -25 57z" />
<glyph unicode="&#xe1;" horiz-adv-x="966" d="M55 283q0 136 95.5 212t236.5 76h268v37q0 70 -49 112t-137 42q-60 0 -108 -21t-97 -57q-29 -20 -61 -20q-40 0 -68.5 28t-28.5 68q0 37 27 67q119 131 336 131q191 0 298 -90t107 -252v-524q0 -44 -32 -76t-76 -32t-76.5 32t-32.5 76q-74 -119 -268 -119q-150 0 -242 86 t-92 224zM276 283q0 -60 42.5 -92.5t127.5 -32.5q86 0 147.5 50.5t61.5 133.5v57h-239q-67 0 -103.5 -30t-36.5 -86zM346.5 1101.5q-2.5 25.5 15.5 43.5l175 221q22 28 56.5 26.5t65.5 -32.5q33 -31 34 -66t-25 -57l-201 -184q-48 -43 -94 0q-24 23 -26.5 48.5z" />
<glyph unicode="&#xe2;" horiz-adv-x="966" d="M55 283q0 136 95.5 212t236.5 76h268v37q0 70 -49 112t-137 42q-60 0 -108 -21t-97 -57q-29 -20 -61 -20q-40 0 -68.5 28t-28.5 68q0 37 27 67q119 131 336 131q191 0 298 -90t107 -252v-524q0 -44 -32 -76t-76 -32t-76.5 32t-32.5 76q-74 -119 -268 -119q-150 0 -242 86 t-92 224zM207 1137q0 41 37 67l190 127q21 15 47 15t47 -15l191 -127q37 -26 37 -67q0 -34 -23 -57t-57 -23q-30 0 -47 14l-148 103l-147 -103q-17 -14 -47 -14q-34 0 -57 23t-23 57zM276 283q0 -60 42.5 -92.5t127.5 -32.5q86 0 147.5 50.5t61.5 133.5v57h-239 q-67 0 -103.5 -30t-36.5 -86z" />
<glyph unicode="&#xe3;" horiz-adv-x="966" d="M55 283q0 136 95.5 212t236.5 76h268v37q0 70 -49 112t-137 42q-60 0 -108 -21t-97 -57q-29 -20 -61 -20q-40 0 -68.5 28t-28.5 68q0 37 27 67q119 131 336 131q191 0 298 -90t107 -252v-524q0 -44 -32 -76t-76 -32t-76.5 32t-32.5 76q-74 -119 -268 -119q-150 0 -242 86 t-92 224zM160 1157q0 21 6 33q21 50 68.5 78t107.5 28q62 0 146.5 -34.5t117.5 -34.5q30 0 53 33q24 34 68 34q34 0 57 -23t23 -57q0 -20 -6 -32q-21 -50 -69 -78.5t-107 -28.5q-63 0 -150 35t-115 35q-30 0 -53 -33q-25 -35 -67 -35q-34 0 -57 23t-23 57zM276 283 q0 -60 42.5 -92.5t127.5 -32.5q86 0 147.5 50.5t61.5 133.5v57h-239q-67 0 -103.5 -30t-36.5 -86z" />
<glyph unicode="&#xe4;" horiz-adv-x="966" d="M55 283q0 136 95.5 212t236.5 76h268v37q0 70 -49 112t-137 42q-60 0 -108 -21t-97 -57q-29 -20 -61 -20q-40 0 -68.5 28t-28.5 68q0 37 27 67q119 131 336 131q191 0 298 -90t107 -252v-524q0 -44 -32 -76t-76 -32t-76.5 32t-32.5 76q-74 -119 -268 -119q-150 0 -242 86 t-92 224zM195 1171q0 109 102 109t102 -109q0 -104 -102 -104t-102 104zM276 283q0 -60 42.5 -92.5t127.5 -32.5q86 0 147.5 50.5t61.5 133.5v57h-239q-67 0 -103.5 -30t-36.5 -86zM565 1171q0 109 103 109q102 0 102 -109q0 -104 -102 -104q-103 0 -103 104z" />
<glyph unicode="&#xe5;" horiz-adv-x="966" d="M55 283q0 136 95.5 212t236.5 76h268v37q0 70 -49 112t-137 42q-60 0 -108 -21t-97 -57q-29 -20 -61 -20q-40 0 -68.5 28t-28.5 68q0 37 27 67q119 131 336 131q191 0 298 -90t107 -252v-524q0 -44 -32 -76t-76 -32t-76.5 32t-32.5 76q-74 -119 -268 -119q-150 0 -242 86 t-92 224zM266 1229q0 96 55 149.5t162 53.5t162 -53.5t55 -149.5t-55 -149.5t-162 -53.5t-162 53.5t-55 149.5zM276 283q0 -60 42.5 -92.5t127.5 -32.5q86 0 147.5 50.5t61.5 133.5v57h-239q-67 0 -103.5 -30t-36.5 -86zM381 1229q0 -50 23.5 -75.5t78.5 -25.5 q103 0 103 101q0 49 -24 74.5t-79 25.5t-78.5 -25t-23.5 -75z" />
<glyph unicode="&#xe6;" horiz-adv-x="1556" d="M55 283q0 136 95.5 212t236.5 76h268v37q0 70 -49 112t-137 42q-60 0 -108 -21t-97 -57q-29 -20 -61 -20q-40 0 -68.5 28t-28.5 68q0 37 27 67q119 131 336 131q212 0 319 -110q113 110 308 110q99 0 175 -29.5t119 -72.5t70 -101t36 -107t9 -97q0 -31 -1 -47.5 t-7.5 -42.5t-18.5 -39.5t-37 -24t-61 -10.5h-506q0 -111 66 -163t174 -52t203 64q36 22 65 22q40 0 68.5 -28t28.5 -68q0 -45 -35 -76q-24 -23 -59.5 -45t-110.5 -45t-160 -23q-127 0 -222 42.5t-147 125.5q-37 -53 -76.5 -86.5t-111 -57.5t-168.5 -24q-150 0 -242 86 t-92 224zM276 283q0 -60 42.5 -92.5t127.5 -32.5q86 0 147.5 50.5t61.5 133.5v57h-239q-67 0 -103.5 -30t-36.5 -86zM881 571h405q0 83 -48.5 141t-141.5 58q-92 0 -150 -51.5t-65 -147.5z" />
<glyph unicode="&#xe7;" horiz-adv-x="923" d="M59 467q0 246 115.5 368.5t329.5 122.5q86 0 161 -27t112 -55.5t61 -58.5q22 -32 22 -63q0 -41 -28.5 -70t-69.5 -29q-44 0 -76 35q-74 80 -182 80q-107 0 -164 -79t-57 -224q0 -148 57 -226.5t164 -78.5q43 0 85.5 15t63 28.5t54.5 38.5q29 20 61 20q41 0 69.5 -28.5 t28.5 -69.5q0 -44 -35 -76q-48 -44 -132 -80.5t-195 -36.5h-25l-8 -82q27 7 72 7q87 0 140.5 -48t53.5 -135q0 -198 -223 -198q-40 0 -86.5 12t-77.5 33q-22 15 -22 43q0 22 15.5 37.5t37.5 15.5q13 0 25 -6q60 -29 116 -29q49 0 75 20.5t26 71.5q0 86 -111 86q-18 0 -47 -6 t-43 -6q-43 0 -43 45v152q-155 33 -237.5 153.5t-82.5 327.5z" />
<glyph unicode="&#xe8;" horiz-adv-x="964" d="M61 469q0 234 116.5 361.5t326.5 127.5q99 0 175 -29.5t119 -72.5t70 -101t36 -107t9 -97q0 -31 -1 -47.5t-7.5 -42.5t-18.5 -39.5t-37 -24t-61 -10.5h-505q0 -106 66 -160.5t173 -54.5q108 0 203 64q36 22 66 22q40 0 68 -28t28 -68q0 -45 -35 -76q-24 -23 -59.5 -45 t-110.5 -45t-160 -23q-220 0 -340.5 123t-120.5 373zM289 571h405q0 83 -48.5 141t-141.5 58q-92 0 -150 -51.5t-65 -147.5zM327 1294q1 35 33 66q31 31 66 32.5t57 -26.5l174 -221q18 -18 16 -43.5t-26 -48.5q-46 -43 -94 0l-201 184q-26 22 -25 57z" />
<glyph unicode="&#xe9;" horiz-adv-x="964" d="M61 469q0 234 116.5 361.5t326.5 127.5q99 0 175 -29.5t119 -72.5t70 -101t36 -107t9 -97q0 -31 -1 -47.5t-7.5 -42.5t-18.5 -39.5t-37 -24t-61 -10.5h-505q0 -106 66 -160.5t173 -54.5q108 0 203 64q36 22 66 22q40 0 68 -28t28 -68q0 -45 -35 -76q-24 -23 -59.5 -45 t-110.5 -45t-160 -23q-220 0 -340.5 123t-120.5 373zM289 571h405q0 83 -48.5 141t-141.5 58q-92 0 -150 -51.5t-65 -147.5zM359 1101.5q-2 25.5 16 43.5l174 221q22 28 57 26.5t66 -32.5q32 -31 33 -66t-25 -57l-201 -184q-48 -43 -94 0q-24 23 -26 48.5z" />
<glyph unicode="&#xea;" horiz-adv-x="964" d="M61 469q0 234 116.5 361.5t326.5 127.5q99 0 175 -29.5t119 -72.5t70 -101t36 -107t9 -97q0 -31 -1 -47.5t-7.5 -42.5t-18.5 -39.5t-37 -24t-61 -10.5h-505q0 -106 66 -160.5t173 -54.5q108 0 203 64q36 22 66 22q40 0 68 -28t28 -68q0 -45 -35 -76q-24 -23 -59.5 -45 t-110.5 -45t-160 -23q-220 0 -340.5 123t-120.5 373zM229 1137q0 41 37 67l191 127q21 15 47 15t47 -15l190 -127q37 -26 37 -67q0 -34 -23 -57t-57 -23q-30 0 -47 14l-147 103l-148 -103q-18 -14 -47 -14q-34 0 -57 23t-23 57zM289 571h405q0 83 -48.5 141t-141.5 58 q-92 0 -150 -51.5t-65 -147.5z" />
<glyph unicode="&#xeb;" horiz-adv-x="964" d="M61 469q0 234 116.5 361.5t326.5 127.5q99 0 175 -29.5t119 -72.5t70 -101t36 -107t9 -97q0 -31 -1 -47.5t-7.5 -42.5t-18.5 -39.5t-37 -24t-61 -10.5h-505q0 -106 66 -160.5t173 -54.5q108 0 203 64q36 22 66 22q40 0 68 -28t28 -68q0 -45 -35 -76q-24 -23 -59.5 -45 t-110.5 -45t-160 -23q-220 0 -340.5 123t-120.5 373zM217 1171q0 109 102 109q103 0 103 -109q0 -104 -103 -104q-102 0 -102 104zM289 571h405q0 83 -48.5 141t-141.5 58q-92 0 -150 -51.5t-65 -147.5zM588 1171q0 109 102 109q103 0 103 -109q0 -104 -103 -104 q-102 0 -102 104z" />
<glyph unicode="&#xec;" horiz-adv-x="436" d="M26 1294q1 35 33 66q31 31 66 32.5t57 -26.5l174 -221q18 -18 16 -43.5t-26 -48.5q-46 -43 -94 0l-201 184q-26 22 -25 57zM113 94v742q0 46 32 78t78 32t78.5 -32t32.5 -78v-742q0 -46 -32.5 -78t-78.5 -32t-78 32t-32 78z" />
<glyph unicode="&#xed;" horiz-adv-x="436" d="M84.5 1101.5q-2.5 25.5 15.5 43.5l174 221q22 28 57 26.5t66 -32.5q33 -31 34 -66t-25 -57l-201 -184q-48 -43 -94 0q-24 23 -26.5 48.5zM113 94v742q0 46 32 78t78 32t78.5 -32t32.5 -78v-742q0 -46 -32.5 -78t-78.5 -32t-78 32t-32 78z" />
<glyph unicode="&#xee;" horiz-adv-x="436" d="M-51 1137q0 41 37 67l190 127q21 15 47 15t47 -15l191 -127q37 -26 37 -67q0 -34 -23 -57t-57 -23q-30 0 -47 14l-148 103l-147 -103q-18 -14 -47 -14q-34 0 -57 23t-23 57zM113 94v742q0 46 32 78t78 32t78.5 -32t32.5 -78v-742q0 -46 -32.5 -78t-78.5 -32t-78 32 t-32 78z" />
<glyph unicode="&#xef;" horiz-adv-x="436" d="M-63 1171q0 109 102 109t102 -109q0 -104 -102 -104t-102 104zM113 94v742q0 46 32 78t78 32t78.5 -32t32.5 -78v-742q0 -46 -32.5 -78t-78.5 -32t-78 32t-32 78zM307 1171q0 109 103 109q102 0 102 -109q0 -104 -102 -104q-103 0 -103 104z" />
<glyph unicode="&#xf0;" horiz-adv-x="1019" d="M59 465q0 246 118 369.5t331 123.5q111 0 190 -43q-32 106 -88 181l-90 -60q-18 -12 -45 -12q-38 0 -66 28t-28 66q0 50 43 78l45 31q-52 35 -127 67q-55 23 -55 80q0 35 24.5 59.5t59.5 24.5q22 0 49 -10q115 -48 205 -121l73 49q19 13 45 13q38 0 66.5 -28.5 t28.5 -66.5q0 -49 -43 -77l-39 -25q194 -256 200 -703v-24q0 -245 -118 -368.5t-330 -123.5t-330.5 123.5t-118.5 368.5zM283 465q0 -150 57 -226.5t168 -76.5t168 76.5t57 226.5q0 305 -225 305t-225 -305z" />
<glyph unicode="&#xf1;" horiz-adv-x="1021" d="M102 90v746q0 46 32.5 78t78.5 32t78.5 -32t32.5 -78q34 51 100.5 86.5t161.5 35.5q344 0 344 -356v-512q0 -45 -32.5 -75.5t-78.5 -30.5q-49 0 -79.5 30t-30.5 76v471q0 197 -181 197q-204 0 -204 -211v-457q0 -46 -32 -76t-79 -30t-79 30t-32 76zM205 1157q0 21 6 33 q21 50 68.5 78t107.5 28q62 0 146.5 -34.5t117.5 -34.5q31 0 54 33q24 34 67 34q34 0 57 -23t23 -57q0 -20 -6 -32q-21 -50 -69 -78.5t-107 -28.5q-63 0 -149.5 35t-114.5 35q-31 0 -54 -33q-24 -35 -67 -35q-34 0 -57 23t-23 57z" />
<glyph unicode="&#xf2;" horiz-adv-x="1015" d="M59 465q0 246 118 369.5t331 123.5t330.5 -123.5t117.5 -369.5q0 -245 -118 -368.5t-330 -123.5t-330.5 123.5t-118.5 368.5zM283 465q0 -150 57 -226.5t168 -76.5t168 76.5t57 226.5q0 305 -225 305t-225 -305zM337 1294q1 35 34 66q31 31 66 32.5t57 -26.5l174 -221 q18 -18 15.5 -43.5t-26.5 -48.5q-46 -43 -94 0l-201 184q-26 22 -25 57z" />
<glyph unicode="&#xf3;" horiz-adv-x="1015" d="M59 465q0 246 118 369.5t331 123.5t330.5 -123.5t117.5 -369.5q0 -245 -118 -368.5t-330 -123.5t-330.5 123.5t-118.5 368.5zM283 465q0 -150 57 -226.5t168 -76.5t168 76.5t57 226.5q0 305 -225 305t-225 -305zM383.5 1101.5q-2.5 25.5 15.5 43.5l174 221q22 28 57 26.5 t66 -32.5q33 -31 34 -66t-25 -57l-201 -184q-48 -43 -94 0q-24 23 -26.5 48.5z" />
<glyph unicode="&#xf4;" horiz-adv-x="1015" d="M59 465q0 246 118 369.5t331 123.5t330.5 -123.5t117.5 -369.5q0 -245 -118 -368.5t-330 -123.5t-330.5 123.5t-118.5 368.5zM238 1137q0 42 36 67l191 127q21 15 47 15t47 -15l191 -127q36 -25 36 -67q0 -34 -22.5 -57t-56.5 -23q-31 0 -48 14l-147 103l-147 -103 q-17 -14 -48 -14q-34 0 -56.5 23t-22.5 57zM283 465q0 -150 57 -226.5t168 -76.5t168 76.5t57 226.5q0 305 -225 305t-225 -305z" />
<glyph unicode="&#xf5;" horiz-adv-x="1015" d="M59 465q0 246 118 369.5t331 123.5t330.5 -123.5t117.5 -369.5q0 -245 -118 -368.5t-330 -123.5t-330.5 123.5t-118.5 368.5zM190 1157q0 19 7 33q21 50 68.5 78t107.5 28q62 0 146.5 -34.5t117.5 -34.5q30 0 53 33q24 34 68 34q34 0 57 -23t23 -57q0 -18 -7 -32 q-21 -50 -69 -78.5t-107 -28.5q-63 0 -149.5 35t-114.5 35q-30 0 -53 -33q-24 -35 -68 -35q-34 0 -57 23t-23 57zM283 465q0 -150 57 -226.5t168 -76.5t168 76.5t57 226.5q0 305 -225 305t-225 -305z" />
<glyph unicode="&#xf6;" horiz-adv-x="1015" d="M59 465q0 246 118 369.5t331 123.5t330.5 -123.5t117.5 -369.5q0 -245 -118 -368.5t-330 -123.5t-330.5 123.5t-118.5 368.5zM223 1171q0 109 103 109q102 0 102 -109q0 -104 -102 -104q-103 0 -103 104zM283 465q0 -150 57 -226.5t168 -76.5t168 76.5t57 226.5 q0 305 -225 305t-225 -305zM594 1171q0 109 102 109q103 0 103 -109q0 -104 -103 -104q-102 0 -102 104z" />
<glyph unicode="&#xf7;" horiz-adv-x="929" d="M0 449q0 38 28 66t66 28h742q38 0 66 -28t28 -66t-28 -66.5t-66 -28.5h-742q-38 0 -66 28.5t-28 66.5zM352 172q0 45 32 77t79 32q50 0 82.5 -32t32.5 -77q0 -46 -32.5 -77.5t-82.5 -31.5q-47 0 -79 31.5t-32 77.5zM352 725q0 47 32 79t79 32q51 0 83 -31.5t32 -79.5 q0 -46 -32.5 -77.5t-82.5 -31.5q-47 0 -79 31.5t-32 77.5z" />
<glyph unicode="&#xf8;" horiz-adv-x="1015" d="M39 66q0 33 24 57l56 57q-60 114 -60 285q0 246 118 369.5t331 123.5q167 0 276 -75l52 53q25 25 59 25t58 -24t24 -58q0 -33 -25 -58l-59 -63q63 -117 63 -293q0 -245 -118 -368.5t-330 -123.5q-173 0 -285 80l-43 -45q-24 -24 -59 -24q-34 0 -58 24t-24 58zM283 465 q0 -62 8 -103l348 367q-53 41 -131 41q-225 0 -225 -305zM369 207q54 -45 139 -45q111 0 168 76.5t57 226.5q0 57 -10 115z" />
<glyph unicode="&#xf9;" horiz-adv-x="993" d="M92 358v478q0 46 32.5 78t78.5 32t78 -32t32 -78v-478q0 -83 40.5 -133.5t144.5 -50.5q182 0 182 184v478q0 46 32.5 78t78.5 32t78 -32t32 -78v-478q0 -82 -17.5 -146t-60 -120.5t-125 -87.5t-200.5 -31q-96 0 -168.5 21t-117 56t-72 86t-38 104t-10.5 118zM309 1294 q1 35 33 66q31 31 66 32.5t57 -26.5l174 -221q18 -18 16 -43.5t-26 -48.5q-46 -43 -94 0l-201 184q-26 22 -25 57z" />
<glyph unicode="&#xfa;" horiz-adv-x="993" d="M92 358v478q0 46 32.5 78t78.5 32t78 -32t32 -78v-478q0 -83 40.5 -133.5t144.5 -50.5q182 0 182 184v478q0 46 32.5 78t78.5 32t78 -32t32 -78v-478q0 -82 -17.5 -146t-60 -120.5t-125 -87.5t-200.5 -31q-96 0 -168.5 21t-117 56t-72 86t-38 104t-10.5 118z M379.5 1101.5q-2.5 25.5 15.5 43.5l174 221q22 28 57 26.5t66 -32.5q32 -31 33 -66t-25 -57l-200 -184q-48 -43 -94 0q-24 23 -26.5 48.5z" />
<glyph unicode="&#xfb;" horiz-adv-x="993" d="M92 358v478q0 46 32.5 78t78.5 32t78 -32t32 -78v-478q0 -83 40.5 -133.5t144.5 -50.5q182 0 182 184v478q0 46 32.5 78t78.5 32t78 -32t32 -78v-478q0 -82 -17.5 -146t-60 -120.5t-125 -87.5t-200.5 -31q-96 0 -168.5 21t-117 56t-72 86t-38 104t-10.5 118zM227 1137 q0 41 37 67l191 127q21 15 47 15t47 -15l190 -127q37 -26 37 -67q0 -34 -23 -57t-57 -23q-30 0 -47 14l-147 103l-148 -103q-17 -14 -47 -14q-34 0 -57 23t-23 57z" />
<glyph unicode="&#xfc;" horiz-adv-x="993" d="M92 358v478q0 46 32.5 78t78.5 32t78 -32t32 -78v-478q0 -83 40.5 -133.5t144.5 -50.5q182 0 182 184v478q0 46 32.5 78t78.5 32t78 -32t32 -78v-478q0 -82 -17.5 -146t-60 -120.5t-125 -87.5t-200.5 -31q-96 0 -168.5 21t-117 56t-72 86t-38 104t-10.5 118zM217 1171 q0 109 102 109q103 0 103 -109q0 -104 -103 -104q-102 0 -102 104zM588 1171q0 109 102 109q103 0 103 -109q0 -104 -103 -104q-102 0 -102 104z" />
<glyph unicode="&#xfd;" horiz-adv-x="925" d="M-18 -309q0 44 30.5 73t75.5 29q91 0 147 65.5t113 207.5l-315 727q-8 20 -8 43q0 46 32 78t78 32q41 0 67 -21.5t36 -47.5l225 -570l225 570q10 26 36 47.5t67 21.5q46 0 78 -32t32 -78q0 -23 -8 -43l-381 -861q-154 -344 -424 -344q-45 0 -75.5 29.5t-30.5 73.5z M357 1101.5q-2 25.5 16 43.5l174 221q22 28 57 26.5t66 -32.5q32 -31 33 -66t-25 -57l-201 -184q-48 -43 -94 0q-24 23 -26 48.5z" />
<glyph unicode="&#xfe;" horiz-adv-x="1052" d="M113 -301v1649q0 46 32 78t78 32t78.5 -32t32.5 -78v-512q28 46 93 84t153 38q199 0 305 -122.5t106 -368.5q0 -247 -107 -370.5t-309 -123.5q-76 0 -141.5 28.5t-99.5 74.5v-377q0 -46 -32.5 -78.5t-78.5 -32.5t-78 32.5t-32 78.5zM328 465q0 -150 55.5 -226.5 t163.5 -76.5t163.5 76.5t55.5 226.5q0 305 -219 305t-219 -305z" />
<glyph unicode="&#xff;" horiz-adv-x="925" d="M-18 -309q0 44 30.5 73t75.5 29q91 0 147 65.5t113 207.5l-315 727q-8 20 -8 43q0 46 32 78t78 32q41 0 67 -21.5t36 -47.5l225 -570l225 570q10 26 36 47.5t67 21.5q46 0 78 -32t32 -78q0 -23 -8 -43l-381 -861q-154 -344 -424 -344q-45 0 -75.5 29.5t-30.5 73.5z M176 1171q0 109 103 109q102 0 102 -109q0 -104 -102 -104q-103 0 -103 104zM547 1171q0 109 102 109q103 0 103 -109q0 -104 -103 -104q-102 0 -102 104z" />
<glyph unicode="&#x152;" horiz-adv-x="1880" d="M70 688q0 359 167 539t482 180q164 0 274 -51q22 22 58 22h639q44 0 75 -31t31 -75t-31 -75.5t-75 -31.5h-521v-366h387q43 0 74 -31t31 -74t-31 -73.5t-74 -30.5h-387v-377h543q44 0 75.5 -31.5t31.5 -75.5t-31.5 -75t-75.5 -31h-661q-37 0 -58 18q-126 -47 -274 -47 q-314 0 -481.5 181t-167.5 536zM315 688q0 -504 404 -504q127 0 213 45v918q-89 47 -213 47q-404 0 -404 -506z" />
<glyph unicode="&#x153;" horiz-adv-x="1636" d="M59 465q0 246 118 369.5t331 123.5q107 0 195 -38.5t143 -106.5q54 66 140.5 105.5t189.5 39.5q99 0 175 -29.5t119 -72.5t70 -101t36 -107t9 -97q0 -31 -1 -47.5t-7.5 -42.5t-18.5 -39.5t-37 -24t-61 -10.5h-506q0 -106 66.5 -160.5t173.5 -54.5q108 0 203 64 q36 22 65 22q40 0 68.5 -28t28.5 -68q0 -45 -35 -76q-24 -23 -59.5 -45t-110.5 -45t-160 -23q-111 0 -202.5 37.5t-147.5 104.5q-55 -67 -142.5 -104.5t-193.5 -37.5q-212 0 -330.5 123.5t-118.5 368.5zM283 465q0 -150 57 -226.5t168 -76.5t168 76.5t57 226.5 q0 305 -225 305t-225 -305zM961 571h405q0 83 -48.5 141t-141.5 58q-92 0 -150 -51.5t-65 -147.5z" />
<glyph unicode="&#x178;" horiz-adv-x="1134" d="M39 1276q0 50 34.5 84.5t84.5 34.5q63 0 100 -56l309 -485l310 485q34 56 100 56q49 0 84 -34.5t35 -84.5q0 -39 -19 -64l-391 -583v-527q0 -49 -34.5 -83.5t-84.5 -34.5q-49 0 -83.5 34t-34.5 84v527l-392 583q-18 24 -18 64zM281 1620q0 109 102 109t102 -109 q0 -104 -102 -104t-102 104zM651 1620q0 109 103 109q102 0 102 -109q0 -104 -102 -104q-103 0 -103 104z" />
<glyph unicode="&#x2c6;" horiz-adv-x="684" d="M68 1137q0 42 36 67l191 127q21 15 47 15t47 -15l191 -127q36 -25 36 -67q0 -34 -22.5 -57t-56.5 -23q-30 0 -48 14l-147 103l-147 -103q-17 -14 -48 -14q-34 0 -56.5 23t-22.5 57z" />
<glyph unicode="&#x2dc;" horiz-adv-x="804" d="M78 1157q0 21 6 33q21 50 68.5 78t107.5 28q62 0 146.5 -34.5t117.5 -34.5q31 0 54 33q24 34 67 34q34 0 57 -23t23 -57q0 -20 -6 -32q-21 -50 -69 -78.5t-107 -28.5q-63 0 -149.5 35t-114.5 35q-31 0 -54 -33q-25 -35 -67 -35q-34 0 -57 23t-23 57z" />
<glyph unicode="&#x2000;" horiz-adv-x="922" />
<glyph unicode="&#x2001;" horiz-adv-x="1845" />
<glyph unicode="&#x2002;" horiz-adv-x="922" />
<glyph unicode="&#x2003;" horiz-adv-x="1845" />
<glyph unicode="&#x2004;" horiz-adv-x="615" />
<glyph unicode="&#x2005;" horiz-adv-x="461" />
<glyph unicode="&#x2006;" horiz-adv-x="307" />
<glyph unicode="&#x2007;" horiz-adv-x="307" />
<glyph unicode="&#x2008;" horiz-adv-x="230" />
<glyph unicode="&#x2009;" horiz-adv-x="369" />
<glyph unicode="&#x200a;" horiz-adv-x="102" />
<glyph unicode="&#x2010;" horiz-adv-x="774" d="M88 516q0 38 28 66t66 28h410q38 0 66 -28t28 -66t-28 -66t-66 -28h-410q-38 0 -66 28t-28 66z" />
<glyph unicode="&#x2011;" horiz-adv-x="774" d="M88 516q0 38 28 66t66 28h410q38 0 66 -28t28 -66t-28 -66t-66 -28h-410q-38 0 -66 28t-28 66z" />
<glyph unicode="&#x2012;" horiz-adv-x="774" d="M88 516q0 38 28 66t66 28h410q38 0 66 -28t28 -66t-28 -66t-66 -28h-410q-38 0 -66 28t-28 66z" />
<glyph unicode="&#x2013;" horiz-adv-x="1165" d="M172 578q0 38 28 66t66 28h633q38 0 66 -28t28 -66t-28 -66.5t-66 -28.5h-633q-38 0 -66 28.5t-28 66.5z" />
<glyph unicode="&#x2014;" horiz-adv-x="1800" d="M172 578q0 38 28 66t66 28h1268q38 0 66 -28t28 -66t-28 -66.5t-66 -28.5h-1268q-38 0 -66 28.5t-28 66.5z" />
<glyph unicode="&#x2018;" horiz-adv-x="411" d="M59 928q0 145 64.5 267t150.5 187q17 13 33 13q19 0 32 -13t13 -32q0 -16 -12 -31q-31 -39 -45 -59t-27.5 -56.5t-13.5 -75.5q0 -40 37 -100t37 -100q0 -137 -135 -137q-134 0 -134 137z" />
<glyph unicode="&#x2019;" horiz-adv-x="411" d="M59 836q0 14 13 30q31 39 45 59t27.5 56.5t13.5 75.5q0 40 -37 100t-37 100q0 68 35 103t100 35q133 0 133 -138q0 -145 -64.5 -267t-150.5 -187q-16 -12 -33 -12q-19 0 -32 13t-13 32z" />
<glyph unicode="&#x201a;" horiz-adv-x="448" d="M59 -305q0 15 13 31q31 39 45 58.5t27.5 56t13.5 75.5q0 40 -37 100.5t-37 100.5q0 137 135 137q133 0 133 -137q0 -145 -64.5 -267.5t-150.5 -187.5q-16 -12 -33 -12q-19 0 -32 13t-13 32z" />
<glyph unicode="&#x201c;" horiz-adv-x="745" d="M59 928q0 145 64.5 267t150.5 187q17 13 33 13q19 0 32 -13t13 -32q0 -16 -12 -31q-31 -39 -45 -59t-27.5 -56.5t-13.5 -75.5q0 -40 37 -100t37 -100q0 -137 -135 -137q-134 0 -134 137zM393 928q0 145 64.5 267t150.5 187q17 13 33 13q19 0 32 -13t13 -32q0 -16 -12 -31 q-31 -39 -45 -59t-27.5 -56.5t-13.5 -75.5q0 -40 37 -100t37 -100q0 -68 -35 -102.5t-101 -34.5q-133 0 -133 137z" />
<glyph unicode="&#x201d;" horiz-adv-x="745" d="M59 836q0 14 13 30q31 39 45 59t27.5 56.5t13.5 75.5q0 40 -37 100t-37 100q0 68 35 103t100 35q133 0 133 -138q0 -145 -64.5 -267t-150.5 -187q-16 -12 -33 -12q-19 0 -32 13t-13 32zM393 836q0 14 13 30q31 39 45 59t27.5 56.5t13.5 75.5q0 40 -37 100t-37 100 q0 68 35 103t100 35q133 0 133 -138q0 -145 -64.5 -267t-150.5 -187q-16 -12 -33 -12q-19 0 -32 13t-13 32z" />
<glyph unicode="&#x201e;" horiz-adv-x="782" d="M59 -305q0 15 13 31q31 39 45 58.5t27.5 56t13.5 75.5q0 40 -37 100.5t-37 100.5q0 137 135 137q133 0 133 -137q0 -145 -64.5 -267.5t-150.5 -187.5q-16 -12 -33 -12q-19 0 -32 13t-13 32zM393 -305q0 15 13 31q31 39 45 58.5t27.5 56t13.5 75.5q0 40 -37 100.5 t-37 100.5q0 137 135 137q133 0 133 -137q0 -145 -64.5 -267.5t-150.5 -187.5q-16 -12 -33 -12q-19 0 -32 13t-13 32z" />
<glyph unicode="&#x2022;" horiz-adv-x="856" d="M162 571q0 279 266 279t266 -279q0 -133 -68.5 -199.5t-197.5 -66.5t-197.5 66.5t-68.5 199.5z" />
<glyph unicode="&#x202f;" horiz-adv-x="369" />
<glyph unicode="&#x2039;" horiz-adv-x="667" d="M94 434q0 29 23 55l315 363q28 31 62 31q32 0 55.5 -24t23.5 -56q0 -31 -20 -51l-289 -318l289 -317q20 -20 20 -51q0 -32 -23.5 -56t-55.5 -24q-35 0 -62 30l-315 363q-23 26 -23 55z" />
<glyph unicode="&#x203a;" horiz-adv-x="667" d="M94 66q0 30 21 51l288 317l-288 318q-21 21 -21 51q0 32 24 56t56 24q34 0 62 -31l315 -363q22 -25 22 -55t-22 -55l-315 -363q-27 -30 -62 -30q-32 0 -56 24t-24 56z" />
<glyph unicode="&#x205f;" horiz-adv-x="461" />
<glyph unicode="&#x20ac;" horiz-adv-x="1325" d="M-31 545q0 37 25.5 62.5t62.5 25.5h15v90h-15q-37 0 -62.5 25.5t-25.5 62.5t25.5 62.5t62.5 25.5h33q45 254 203.5 381t419.5 127q176 0 299.5 -60.5t191.5 -160.5q23 -36 23 -68q0 -44 -32.5 -76t-78.5 -32q-48 0 -84 41q-64 74 -137.5 108.5t-181.5 34.5 q-156 0 -248 -73t-127 -222h252q37 0 62.5 -25.5t25.5 -62.5t-25.5 -62.5t-62.5 -25.5h-273v-90h273q37 0 62.5 -25.5t25.5 -62.5t-25.5 -62.5t-62.5 -25.5h-248q36 -143 126 -208t245 -65q113 0 184 29.5t145 105.5q46 46 88 46q46 0 78.5 -32.5t32.5 -78.5q0 -34 -20 -61 q-75 -100 -211 -161t-297 -61q-526 0 -621 486h-35q-37 0 -62.5 25.5t-25.5 62.5z" />
<glyph unicode="&#x2122;" horiz-adv-x="858" d="M49 1296q0 17 11 28t28 11h252q17 0 28 -11t11 -28q0 -16 -11 -27.5t-28 -11.5h-82v-258q0 -17 -13 -30t-30 -13q-18 0 -30.5 12.5t-12.5 30.5v258h-84q-17 0 -28 11.5t-11 27.5zM430 997v303q0 17 12 29t29 12q22 0 37 -22l94 -168l94 168q15 22 37 22q17 0 29 -12 t12 -29v-303q0 -17 -12 -29t-29 -12t-29 12t-12 29v164l-57 -106q-13 -21 -33 -21t-33 21l-57 106v-164q0 -17 -12 -29t-29 -12t-29 12t-12 29z" />
<glyph unicode="&#x25fc;" horiz-adv-x="942" d="M0 0v942h942v-942h-942z" />
</font>
</defs>
</svg>
